<?xml version="1.0" standalone="no"?>
<!DOCTYPE svg PUBLIC "-//W3C//DTD SVG 1.1//EN" "http://www.w3.org/Graphics/SVG/1.1/DTD/svg11.dtd" >
<svg xmlns="http://www.w3.org/2000/svg" xmlns:xlink="http://www.w3.org/1999/xlink" version="1.1">
<metadata>
Created by FontForge 20190801 at Wed Jun 13 18:03:28 2007
 By Jimmy Wärting
Copyright 1986, 1990, 1991, 1998, 2001 Adobe Systems Incorporated. All rights reserved. Bodoni
</metadata>
<defs>
<font id="BodoniStd-Bold" horiz-adv-x="500" >
  <font-face 
    font-family="Bodoni Std"
    font-weight="700"
    font-stretch="normal"
    units-per-em="1000"
    panose-1="2 7 8 3 7 7 6 2 3 3"
    ascent="698"
    descent="-302"
    x-height="396"
    cap-height="668"
    bbox="-168 -250 1004 955"
    underline-thickness="50"
    underline-position="-100"
    stemh="28"
    stemv="138"
    unicode-range="U+0020-FB02"
  />
<missing-glyph 
d="M0 0v700h500v-700h-500zM250 395l170 255h-340zM280 350l170 -255v510zM80 50h340l-170 255zM50 605v-510l170 255z" />
    <glyph glyph-name="f_i" unicode="fi" horiz-adv-x="556" 
d="M212 368v-340h51v-28h-257v30h68v338h-68v28h70c21 207 99 287 242 287c54 0 143 -24 143 -94c0 -39 -29 -66 -67 -66s-72 38 -60 76c4 12 13 26 13 38c0 19 -25 18 -39 18c-81 0 -96 -89 -96 -153v-106h146c23 0 45 1 68 2c22 1 45 2 67 2v-372h58v-28h-251v28h55v340
h-143z" />
    <glyph glyph-name="f_l" unicode="fl" horiz-adv-x="556" 
d="M211 396h143v132c-26 9 -44 30 -44 59c0 15 4 24 12 35c17 21 3 33 -24 33c-36 0 -87 -47 -87 -133v-126zM73 28v340h-65v28h65c-9 141 88 287 232 287c18 0 36 -5 53 -9s35 -8 52 -5l82 14v-655h58v-28h-248v28h52v340h-143v-340h52v-28h-257v28h67z" />
    <glyph glyph-name=".notdef" 
d="M0 0v700h500v-700h-500zM250 395l170 255h-340zM280 350l170 -255v510zM80 50h340l-170 255zM50 605v-510l170 255z" />
    <glyph glyph-name="space" unicode=" " horiz-adv-x="305" 
 />
    <glyph glyph-name="exclam" unicode="!" horiz-adv-x="333" 
d="M178 218h-30c1 45 -1 89 -3 134c-3 52 -19 104 -41 152c-9 19 -20 49 -20 71c0 47 24 91 82 91c52 0 76 -44 76 -91c0 -22 -11 -52 -20 -71c-22 -48 -38 -100 -41 -152c-2 -45 -4 -89 -3 -134zM163 149c44 0 83 -37 83 -82c0 -46 -38 -82 -83 -82s-82 38 -82 82
s38 82 82 82z" />
    <glyph glyph-name="quotedbl" unicode="&#x22;" horiz-adv-x="400" 
d="M86 433l-22 178c0 36 11 72 53 72c32 0 47 -25 47 -54c0 -18 -2 -33 -5 -50l-23 -138c-2 -15 -4 -44 -25 -44c-20 0 -22 21 -25 36zM258 433l-22 178c0 36 11 72 53 72c32 0 47 -25 47 -54c0 -18 -2 -33 -5 -50l-23 -138c-2 -15 -4 -44 -25 -44c-20 0 -22 21 -25 36z" />
    <glyph glyph-name="numbersign" unicode="#" horiz-adv-x="611" 
d="M231 665h73l-32 -169h126l32 169h73l-32 -169h93v-71h-107l-29 -151h95v-71h-108l-38 -203h-71l38 203h-128l-38 -203h-73l38 203h-106v71h120l29 151h-92v71h105zM385 425h-127l-28 -151h127z" />
    <glyph glyph-name="dollar" unicode="$" horiz-adv-x="611" 
d="M260 -16v-124h-29v124c-79 5 -175 53 -175 144c0 41 29 85 74 85c42 0 64 -23 64 -65c0 -28 -6 -38 -39 -63c-8 -6 -21 -11 -23 -18c-6 -25 79 -54 99 -54v252c-97 29 -155 90 -155 184c0 83 67 166 148 185c12 3 7 33 7 45v49h29v-86c29 6 58 5 87 4v83h29v-85
c65 -10 145 -62 145 -135c0 -39 -20 -68 -60 -68c-34 0 -56 28 -56 60c0 21 12 36 23 47c8 8 22 15 22 23c0 23 -54 44 -74 46v-234c89 -18 177 -89 177 -186c0 -110 -76 -178 -177 -203v-134h-29v131c-28 -7 -58 -5 -87 -7zM260 615v-208c29 -4 58 -12 87 -18v230
c-29 2 -58 2 -87 -4zM231 413v197c-48 -13 -96 -52 -96 -106c0 -53 51 -82 96 -91zM376 231v-210c58 16 110 44 110 111c0 63 -59 84 -110 99zM260 259v-247c29 -4 58 0 87 4v222c-29 6 -58 14 -87 21z" />
    <glyph glyph-name="percent" unicode="%" horiz-adv-x="1000" 
d="M251 -30l358 616l-2 2c-38 -26 -84 -42 -132 -42c-24 0 -48 3 -71 10c17 -118 -78 -285 -208 -285c-80 0 -139 53 -139 135c0 155 164 248 228 248c46 0 90 -20 109 -64c27 -10 55 -18 84 -18c69 0 156 50 174 96c6 15 24 11 32 11h25l-407 -709h-51zM310 613
c-48 -6 -138 -174 -138 -259c0 -27 24 -51 51 -51c94 0 158 144 158 224c0 12 -1 24 -4 36c-25 15 -46 31 -67 50zM790 376c75 0 110 -55 110 -125c0 -113 -85 -256 -210 -256c-80 0 -140 50 -140 132c0 141 136 249 240 249zM822 338c-66 0 -155 -180 -155 -257
c0 -34 16 -54 51 -54c95 0 159 146 159 226c0 34 -12 85 -55 85z" />
    <glyph glyph-name="ampersand" unicode="&#x26;" horiz-adv-x="778" 
d="M455 504v49c0 57 -21 85 -77 85c-30 0 -70 -14 -70 -51c0 -25 13 -47 26 -67l59 -93c31 17 60 39 62 77zM498 0l-39 61c-62 -50 -145 -76 -224 -76c-105 0 -201 72 -201 181c0 111 110 183 207 210c-28 45 -50 90 -50 145c0 85 97 147 190 147c143 0 191 -71 191 -121
c0 -78 -94 -128 -160 -142l145 -205c21 32 67 109 67 147c0 19 -28 26 -42 26h-57v30h232v-30h-27c-49 0 -64 -17 -76 -47c-22 -54 -46 -104 -79 -153l94 -143h88v-30h-259zM442 86l-183 263c-40 -8 -76 -39 -76 -82c0 -28 5 -54 19 -78l41 -71c23 -40 50 -72 101 -72
c40 0 69 14 98 40z" />
    <glyph glyph-name="quoteright" unicode="&#x2019;" horiz-adv-x="333" 
d="M123 357l-5 25c54 29 99 82 99 146c0 18 -1 36 -11 52c-10 -37 -33 -54 -71 -54c-39 0 -67 32 -67 70c0 48 36 87 85 87c72 0 113 -64 113 -130c0 -84 -67 -166 -143 -196z" />
    <glyph glyph-name="parenleft" unicode="(" horiz-adv-x="333" 
d="M274 683l14 -10c-127 -145 -130 -247 -130 -428c0 -203 2 -291 145 -452l-21 -13c-128 127 -251 258 -251 451c0 186 117 333 243 452z" />
    <glyph glyph-name="parenright" unicode=")" horiz-adv-x="333" 
d="M46 673l14 10c126 -119 243 -266 243 -452c0 -193 -123 -324 -251 -451l-21 13c143 161 145 249 145 452c0 181 -3 283 -130 428z" />
    <glyph glyph-name="asterisk" unicode="*" horiz-adv-x="611" 
d="M283 424c-58 -39 -45 -50 -70 -82c-16 -19 -41 -31 -62 -26c-12 2 -23 11 -31 25c-9 14 -10 28 -6 39c6 21 29 37 54 40c40 6 42 -9 105 21c8 8 8 14 1 17c-63 31 -65 15 -106 21c-24 4 -47 19 -54 40c-3 11 -2 25 7 39c8 14 19 23 30 25c22 5 47 -7 62 -26
c26 -32 13 -42 71 -82c6 -3 10 -1 10 7c-6 70 -21 64 -36 102c-9 23 -7 51 8 67c8 9 21 14 37 14c17 0 30 -5 37 -14c15 -16 17 -44 8 -67c-15 -38 -30 -32 -34 -102c-4 -8 7 -14 14 -9c58 39 45 49 71 81c15 19 40 32 62 27c11 -3 22 -11 30 -25c8 -15 10 -29 7 -39
c-7 -21 -30 -37 -54 -41c-41 -6 -43 10 -106 -20c-9 -3 -8 -11 1 -11c63 -30 65 -14 106 -20c24 -4 47 -20 54 -41c3 -11 1 -25 -7 -39s-19 -23 -30 -25c-22 -5 -47 7 -62 27c-26 32 -13 42 -71 81c-10 9 -20 3 -15 -8c5 -70 20 -64 35 -102c9 -23 7 -51 -8 -67
c-8 -8 -21 -14 -37 -14c-17 0 -30 6 -37 14c-15 16 -17 44 -8 67c15 38 30 32 35 102c3 9 -5 13 -11 4z" />
    <glyph glyph-name="plus" unicode="+" 
d="M29 263h181v181h81v-181h181v-81h-181v-181h-81v181h-181v81z" />
    <glyph glyph-name="comma" unicode="," horiz-adv-x="333" 
d="M124 -184l-6 26c54 27 100 83 100 146c0 17 -2 37 -12 51c-6 -35 -36 -54 -71 -54c-38 0 -67 33 -67 70c0 48 38 87 86 87c72 0 112 -65 112 -130c0 -86 -67 -162 -142 -196z" />
    <glyph glyph-name="hyphen" unicode="-" horiz-adv-x="333" 
d="M309 150h-285v102h285v-102z" />
    <glyph glyph-name="period" unicode="." horiz-adv-x="333" 
d="M154 149c44 0 83 -37 83 -82c0 -46 -38 -82 -83 -82s-82 38 -82 82s38 82 82 82z" />
    <glyph glyph-name="slash" unicode="/" horiz-adv-x="278" 
d="M-6 0l207 683h83l-206 -683h-84z" />
    <glyph glyph-name="zero" unicode="0" horiz-adv-x="611" 
d="M397 154v356c0 114 -42 129 -93 129s-92 -15 -93 -129v-356c-1 -108 35 -143 93 -143s93 35 93 143zM304 665c160 0 269 -188 269 -332c0 -150 -104 -348 -269 -348s-269 198 -269 348c0 144 109 332 269 332z" />
    <glyph glyph-name="one" unicode="1" horiz-adv-x="611" 
d="M509 0h-393v30h125v561c0 22 -15 30 -39 30h-86v30h86c62 0 124 9 186 14v-635h121v-30z" />
    <glyph glyph-name="two" unicode="2" horiz-adv-x="611" 
d="M519 0h-480v89c59 45 118 89 177 134c100 76 147 128 147 259c0 75 -39 148 -123 148c-29 0 -64 -11 -89 -27c-10 -6 -45 -33 -45 -46s17 -14 25 -14c47 0 89 -21 89 -73c0 -46 -34 -70 -78 -70c-56 0 -83 47 -83 97c0 89 85 168 237 168c110 0 236 -45 236 -175
c0 -72 -44 -120 -95 -165c-89 -78 -199 -131 -296 -199h318c46 0 30 62 35 93h35z" />
    <glyph glyph-name="three" unicode="3" horiz-adv-x="611" 
d="M307 358v-2c106 -19 231 -43 231 -177c0 -133 -156 -194 -301 -194c-117 0 -189 69 -189 125c0 45 22 84 72 84c42 0 79 -25 79 -70c0 -30 -14 -46 -27 -56c-14 -10 -28 -14 -28 -24c0 -23 84 -30 98 -30c81 0 124 56 124 146c0 124 -43 173 -154 173
c-21 0 -39 -2 -58 -2c-15 0 -14 28 -2 30c20 3 40 3 60 5c102 10 129 52 129 150c0 91 -21 121 -93 121c-16 0 -71 -1 -71 -26c0 -7 12 -11 24 -20s24 -23 24 -52c0 -42 -30 -69 -71 -69c-37 0 -67 31 -67 68c0 77 76 127 191 127c91 0 222 -38 222 -150
c0 -102 -111 -139 -193 -157z" />
    <glyph glyph-name="four" unicode="4" horiz-adv-x="611" 
d="M341 665h99v-454h67c50 0 31 38 35 74h27v-174h-27c0 66 10 70 -58 70h-44v-151h79v-30h-320v30h90v151h-266c2 29 -8 31 10 56zM51 211h238v339z" />
    <glyph glyph-name="five" unicode="5" horiz-adv-x="611" 
d="M461 695h25v-19c0 -100 -20 -140 -101 -140h-251l-3 -169c47 18 96 28 146 28c114 0 265 -57 265 -193c0 -163 -164 -217 -301 -217c-116 0 -192 61 -192 141c0 43 41 66 79 66c43 0 70 -32 70 -73c0 -29 -13 -43 -26 -52s-26 -13 -26 -24c0 -10 30 -36 90 -36
c105 0 132 70 132 162c0 124 -49 182 -143 182c-33 0 -66 -10 -98 -16c-29 -5 -23 30 -23 50l5 204c1 45 5 66 54 66h253c36 0 42 1 45 40z" />
    <glyph glyph-name="six" unicode="6" horiz-adv-x="611" 
d="M402 144v147c0 76 -34 91 -83 91s-102 -46 -102 -70v-154c0 -109 21 -145 104 -145c64 0 80 41 81 131zM491 665v-30c-165 -3 -257 -128 -269 -274c39 35 74 58 129 58c108 0 218 -87 218 -200c0 -104 -87 -234 -269 -234c-170 0 -256 150 -256 286
c0 219 219 389 447 394z" />
    <glyph glyph-name="seven" unicode="7" horiz-adv-x="611" 
d="M559 665v-43l-132 -217c-25 -41 -71 -146 -71 -191c0 -23 11 -49 21 -75c10 -25 20 -51 20 -74c0 -59 -44 -80 -95 -80c-59 0 -87 35 -87 94c0 49 64 149 89 190l165 267h-293c-53 0 -44 7 -79 -93h-30l70 222h422z" />
    <glyph glyph-name="eight" unicode="8" horiz-adv-x="611" 
d="M222 551v-116c0 -65 34 -81 78 -81s78 16 78 81v116c0 61 -19 88 -78 88s-78 -27 -78 -88zM358 343l-2 -2c93 -15 210 -63 210 -175c0 -94 -82 -181 -266 -181s-266 87 -266 181c0 112 117 160 210 175v2c-113 25 -186 66 -186 159c0 114 141 163 242 163
c96 0 242 -49 242 -163c0 -106 -100 -145 -184 -159zM203 217v-107c0 -75 31 -99 97 -99s97 24 97 99v107c-1 21 -19 104 -97 104s-97 -83 -97 -104z" />
    <glyph glyph-name="nine" unicode="9" horiz-adv-x="611" 
d="M387 340v212c0 52 -32 84 -106 84c-50 0 -81 -48 -81 -104v-171c0 -61 22 -95 82 -95c48 0 105 52 105 74zM111 -15v27c65 -3 125 27 174 67c51 41 73 84 95 208c-35 -32 -81 -58 -129 -58c-112 0 -219 91 -219 206c0 141 143 230 270 230c89 0 256 -70 256 -288
c0 -126 -81 -248 -185 -314c-87 -55 -167 -75 -262 -78z" />
    <glyph glyph-name="colon" unicode=":" horiz-adv-x="333" 
d="M165 402c44 0 83 -37 83 -82c0 -46 -38 -82 -83 -82s-82 38 -82 82s38 82 82 82zM165 149c44 0 83 -37 83 -82c0 -46 -38 -82 -83 -82s-82 38 -82 82s38 82 82 82z" />
    <glyph glyph-name="semicolon" unicode=";" horiz-adv-x="333" 
d="M138 -184l-6 26c54 27 100 83 100 146c0 17 -2 37 -12 51c-6 -35 -36 -54 -71 -54c-38 0 -67 33 -67 70c0 48 38 87 86 87c72 0 112 -65 112 -130c0 -86 -67 -162 -142 -196zM179 402c44 0 83 -37 83 -82c0 -46 -38 -82 -83 -82s-82 38 -82 82s38 82 82 82z" />
    <glyph glyph-name="less" unicode="&#x3c;" 
d="M486 47v-79l-472 215v78l472 217v-80l-393 -177z" />
    <glyph glyph-name="equal" unicode="=" 
d="M29 331h443v-81h-443v81zM29 195h443v-81h-443v81z" />
    <glyph glyph-name="greater" unicode="&#x3e;" 
d="M14 47l393 174l-393 177v80l472 -217v-78l-472 -215v79z" />
    <glyph glyph-name="question" unicode="?" horiz-adv-x="444" 
d="M191 223h-26c-8 32 -22 75 -22 107c0 57 41 104 82 145s81 78 81 113c0 58 -52 72 -101 72c-24 0 -83 -10 -88 -41c-1 -7 23 -6 41 -26c11 -12 18 -30 18 -46c0 -40 -31 -57 -67 -57c-39 0 -64 29 -64 67c0 39 27 74 58 95c40 27 66 31 113 31c95 0 184 -60 184 -162
c0 -83 -48 -117 -110 -162c-101 -74 -114 -79 -99 -136zM193 149c44 0 83 -37 83 -82c0 -46 -38 -82 -83 -82s-82 38 -82 82s38 82 82 82z" />
    <glyph glyph-name="at" unicode="@" horiz-adv-x="720" 
d="M555 506l-85 -227c-4 -12 -15 -35 -15 -48s12 -18 22 -18c37 0 145 64 145 190c0 51 -38 212 -242 212c-151 0 -281 -122 -281 -276c0 -164 125 -286 285 -286c99 0 194 44 245 131h60c-51 -134 -173 -199 -310 -199c-195 0 -348 152 -348 348c0 197 156 350 348 350
c206 0 311 -145 311 -277c0 -67 -22 -132 -68 -183c-43 -46 -108 -78 -171 -78c-32 0 -65 15 -66 51c-28 -26 -63 -49 -103 -49c-68 0 -102 52 -102 116c0 111 80 259 202 259c27 0 49 -10 69 -30l5 14h99zM284 237c0 -10 5 -24 17 -24c32 0 64 63 74 89c14 33 42 97 42 131
c0 12 -4 22 -18 22c-55 0 -115 -172 -115 -218z" />
    <glyph glyph-name="A" unicode="A" horiz-adv-x="667" 
d="M209 0h-207v30c24 0 68 -1 79 29l236 624h39l248 -653h60v-30h-317v30h77l-54 157h-205l-26 -72c-11 -30 -20 -59 -20 -68c0 -25 76 -17 90 -17v-30zM269 462l-91 -245h180z" />
    <glyph glyph-name="B" unicode="B" horiz-adv-x="722" 
d="M285 30h118c89 0 75 79 75 150c0 121 -8 153 -150 153h-43v-303zM285 638v-275h43c106 0 129 13 129 147c0 119 -4 128 -106 128h-66zM386 0h-337v30h68v608h-71v30h372c87 0 205 -42 212 -147c5 -76 -44 -143 -196 -172v-2c99 -3 230 -50 230 -171
c0 -72 -49 -121 -108 -150c-50 -25 -116 -26 -170 -26z" />
    <glyph glyph-name="C" unicode="C" horiz-adv-x="667" 
d="M532 629l34 39h34v-186h-29c-38 93 -87 171 -198 171c-93 0 -125 -31 -125 -313c0 -253 1 -325 129 -325c114 0 171 81 203 183h34v-198h-36l-39 37c-48 -31 -102 -52 -159 -52c-177 0 -327 155 -327 355c0 125 135 343 317 343c60 0 114 -16 162 -54z" />
    <glyph glyph-name="D" unicode="D" horiz-adv-x="778" 
d="M119 30v608h-75v30h372c174 0 311 -153 311 -329c0 -226 -157 -322 -288 -334c-33 -3 -67 -5 -101 -5h-294v30h75zM287 638v-608h95c87 0 125 37 142 93c9 29 11 62 11 99v235c0 79 -11 105 -19 122c-19 42 -54 59 -134 59h-95z" />
    <glyph glyph-name="E" unicode="E" horiz-adv-x="667" 
d="M621 0h-581v30h80v608h-71v30h547l6 -180h-34c-42 113 -86 150 -186 150h-94v-279c98 0 119 29 139 121h33v-284h-33c-14 96 -41 128 -139 128v-294h98c155 0 183 73 210 189h31z" />
    <glyph glyph-name="F" unicode="F" horiz-adv-x="611" 
d="M364 0h-337v30h75v608h-77v30h556l6 -197h-30c-40 131 -86 167 -182 167h-105v-278c98 0 119 29 139 121h33v-284h-33c-14 96 -41 128 -139 128v-295h94v-30z" />
    <glyph glyph-name="G" unicode="G" horiz-adv-x="722" 
d="M534 633l34 35h35v-193h-35c-27 103 -101 178 -178 178c-83 0 -120 -46 -137 -108c-8 -30 -10 -65 -10 -99v-202c0 -59 0 -124 20 -178c17 -45 49 -51 106 -51c66 0 94 34 94 84v126h-86v30h320v-30h-60v-103c0 -15 -53 -66 -65 -76c-40 -33 -90 -61 -211 -61
c-175 0 -314 165 -314 339c0 199 162 359 332 359c55 0 110 -20 155 -50z" />
    <glyph glyph-name="H" unicode="H" horiz-adv-x="778" 
d="M357 0h-324v30h73v608h-73v30h323v-30h-82v-281h220v281h-82v30h333v-30h-83v-608h83v-30h-333v30h82v297h-220v-297h83v-30z" />
    <glyph glyph-name="I" unicode="I" horiz-adv-x="389" 
d="M358 0h-326v30h74v608h-74v30h326v-30h-84v-608h84v-30z" />
    <glyph glyph-name="J" unicode="J" horiz-adv-x="444" 
d="M341 638v-511c0 -145 -98 -241 -240 -241c-64 0 -124 41 -124 110c0 45 29 74 73 74c38 0 69 -30 69 -69c0 -25 -9 -49 -25 -68c6 -7 17 -11 33 -11c34 0 46 6 46 210v506h-78v30h319v-30h-73z" />
    <glyph glyph-name="K" unicode="K" horiz-adv-x="778" 
d="M456 638v30h243v-30h-73c-15 0 -23 -4 -33 -15l-174 -181l280 -412h72v-30h-352v30h81l-190 282c-8 12 -17 27 -17 40c0 17 18 29 30 41l204 211c11 11 17 20 17 21c0 12 -19 13 -39 13h-49zM366 0h-329v30h77v608h-75v30h329v-30h-86v-608h84v-30z" />
    <glyph glyph-name="L" unicode="L" horiz-adv-x="611" 
d="M577 0h-552v30h68v608h-68v30h326v-30h-90v-608h112c113 0 155 94 186 189h28z" />
    <glyph glyph-name="M" unicode="M" horiz-adv-x="833" 
d="M728 638v-608h83v-30h-333v30h89v603h-2l-195 -633h-36l-191 635h-2v-545c0 -66 36 -60 94 -60v-30h-213v30c55 0 89 -6 89 60v548h-89v30h281l116 -403l121 403h271v-30h-83z" />
    <glyph glyph-name="N" unicode="N" horiz-adv-x="722" 
d="M605 609v-624h-23l-428 595v-513c0 -25 14 -35 39 -37h57v-30h-220v30h48c34 2 36 23 36 52v494c0 49 9 62 -51 62h-33v30h264l281 -396v337c0 20 -41 29 -66 29h-28v30h211v-30h-42c-29 0 -45 -9 -45 -29z" />
    <glyph glyph-name="O" unicode="O" horiz-adv-x="778" 
d="M245 431v-168c0 -208 7 -248 144 -248s145 40 145 248v168c0 182 -35 222 -145 222s-144 -40 -144 -222zM389 683c131 0 343 -115 343 -342c0 -197 -147 -356 -343 -356c-195 0 -342 159 -342 356c0 227 212 342 342 342z" />
    <glyph glyph-name="P" unicode="P" horiz-adv-x="667" 
d="M281 638v-299h69c88 0 113 33 113 99v108c0 79 -32 92 -113 92h-69zM371 0h-333v30h75v608h-73v30h370c171 0 239 -92 239 -171c0 -161 -189 -188 -308 -188h-60v-279h90v-30z" />
    <glyph glyph-name="Q" unicode="Q" horiz-adv-x="778" 
d="M245 431v-168c0 -208 7 -248 144 -248s145 40 145 248v168c0 182 -35 222 -145 222s-144 -40 -144 -222zM483 -2l-4 -64c-4 -65 31 -115 108 -115h84v-25c-28 -7 -59 -9 -88 -9c-245 0 -276 71 -283 139l-8 75c-145 43 -245 180 -245 342c0 227 212 342 342 342
c131 0 343 -115 343 -342c0 -164 -101 -301 -249 -343z" />
    <glyph glyph-name="R" unicode="R" horiz-adv-x="722" 
d="M281 638v-265h42c101 0 130 17 130 87v97c0 48 16 81 -100 81h-72zM364 0h-329v30h78v608h-80v30h397c100 0 205 -45 205 -162c0 -110 -139 -142 -223 -151v-2c139 -26 197 -81 197 -177c0 -83 4 -119 18 -134c7 -7 27 -15 77 -4l6 -21c-32 -17 -81 -31 -117 -31
c-122 0 -163 55 -166 209c-2 119 -23 145 -103 145h-43v-310h83v-30z" />
    <glyph glyph-name="S" unicode="S" horiz-adv-x="556" 
d="M396 639l37 29h31v-177h-32c-15 82 -86 162 -173 162c-55 0 -132 -32 -132 -98c0 -59 42 -75 91 -86c51 -11 135 -31 181 -51c60 -26 109 -79 109 -195c0 -117 -71 -238 -234 -238c-52 0 -96 15 -138 47l-51 -38h-36v194h36c27 -92 93 -173 194 -173
c111 0 159 71 159 134c0 86 -97 93 -193 118c-97 25 -194 65 -194 216c0 114 96 200 210 200c48 0 94 -19 135 -44z" />
    <glyph glyph-name="T" unicode="T" horiz-adv-x="667" 
d="M20 451l10 217h608l10 -217h-27c-33 121 -66 197 -203 187v-608h82v-30h-332v30h82v608c-137 10 -170 -66 -203 -187h-27z" />
    <glyph glyph-name="U" unicode="U" horiz-adv-x="722" 
d="M26 638v30h331v-30h-84v-484c0 -92 23 -138 136 -139c79 -1 123 37 144 66c23 25 23 102 23 184v336c0 20 -16 37 -45 37h-45v30h211v-30h-60c-23 0 -31 -17 -31 -37v-411c0 -51 -4 -103 -39 -141c-37 -41 -95 -64 -209 -64c-164 0 -253 57 -253 219v434h-79z" />
    <glyph glyph-name="V" unicode="V" horiz-adv-x="667" 
d="M7 638v30h310v-30h-77l167 -411l135 389c3 8 -1 22 -57 22h-34v30h209v-30h-41c-24 0 -34 -6 -72 -115l-187 -538h-31l-265 653h-57z" />
    <glyph glyph-name="W" unicode="W" horiz-adv-x="944" 
d="M488 638l61 -147l60 147h-121zM9 638v30h691v-30h-36c-21 0 -27 -9 -50 -66l-47 -118l104 -257l141 385c12 32 0 56 -32 56h-39v30h193v-30h-38c-22 0 -34 -6 -56 -66l-212 -587h-26l-122 285l-125 -285h-29l-261 653h-56zM227 638l183 -451l54 123l-132 328h-105z" />
    <glyph glyph-name="X" unicode="X" horiz-adv-x="667" 
d="M228 0h-227v30h54c9 0 28 4 34 13l175 250l-207 345h-59v30h320v-30h-69l117 -197l113 169c14 20 -8 28 -34 28h-46v30h223v-30c-32 0 -82 11 -104 -22l-137 -203l199 -330c6 -10 28 -53 39 -53h50v-30h-322v30h73l-141 233l-134 -203c-15 -23 20 -30 30 -30h53v-30z" />
    <glyph glyph-name="Y" unicode="Y" horiz-adv-x="667" 
d="M6 638v30h319v-30h-75l160 -271l127 245c8 15 -7 26 -28 26h-59v30h211v-30h-37c-28 0 -39 -5 -65 -55l-132 -257v-296h88v-30h-340v30h84v271l-192 337h-61z" />
    <glyph glyph-name="Z" unicode="Z" horiz-adv-x="556" 
d="M508 226h29v-226h-519v39l336 599h-90c-75 0 -155 -27 -182 -153h-29l9 183h477v-30l-338 -608h142c102 0 143 112 165 196z" />
    <glyph glyph-name="bracketleft" unicode="[" horiz-adv-x="333" 
d="M282 -220h-230v903h230v-30h-137v-843h137v-30z" />
    <glyph glyph-name="backslash" unicode="\" horiz-adv-x="540" 
d="M359 0l-266 683h88l266 -683h-88z" />
    <glyph glyph-name="bracketright" unicode="]" horiz-adv-x="333" 
d="M281 -220h-230v30h137v843h-137v30h230v-903z" />
    <glyph glyph-name="asciicircum" unicode="^" 
d="M74 193h-79l215 472h77l218 -472h-80l-177 387z" />
    <glyph glyph-name="underscore" unicode="_" 
d="M500 -75v-50h-500v50h500z" />
    <glyph glyph-name="quoteleft" unicode="&#x2018;" horiz-adv-x="333" 
d="M210 683l6 -25c-53 -28 -100 -83 -100 -146c0 -17 1 -39 12 -52c8 36 34 54 70 54c38 0 68 -34 68 -71c0 -49 -38 -86 -86 -86c-73 0 -112 62 -112 129c0 88 64 163 142 197z" />
    <glyph glyph-name="a" unicode="a" 
d="M299 100v102c-54 -3 -127 -10 -127 -81c0 -34 18 -79 58 -79c46 0 69 31 69 58zM299 226v67c0 52 4 83 -70 83c-11 0 -53 -6 -53 -24c0 -5 5 -13 10 -21s10 -17 10 -25c0 -42 -21 -70 -64 -70c-35 0 -64 23 -64 60c0 79 108 106 170 106c129 0 184 -37 184 -66v-243
c0 -21 1 -46 29 -46c7 0 21 7 25 14l18 -19c-27 -42 -56 -57 -104 -57c-43 0 -79 37 -89 69c-35 -41 -86 -69 -140 -69s-117 31 -117 93c0 117 166 146 255 148z" />
    <glyph glyph-name="b" unicode="b" horiz-adv-x="556" 
d="M89 28v617h-56v28h56c46 0 92 7 138 10v-353c29 45 66 72 121 72c104 0 188 -99 188 -201c0 -104 -76 -216 -188 -216c-58 0 -94 31 -119 79h-2v-64h-196v28h58zM379 87v244c0 27 -23 45 -50 45c-52 0 -102 -68 -102 -100v-155c0 -44 50 -110 103 -110c47 0 49 37 49 76z
" />
    <glyph glyph-name="c" unicode="c" 
d="M429 126l22 -12c-27 -77 -94 -129 -176 -129c-110 0 -225 87 -225 204c0 123 110 213 228 213c110 0 158 -70 158 -109c0 -42 -30 -69 -70 -69c-38 0 -66 31 -66 69c0 14 9 33 17 39c6 4 13 12 13 22c0 20 -37 22 -53 22c-44 0 -74 -12 -74 -107v-129
c0 -103 13 -129 77 -129c78 0 119 45 149 115z" />
    <glyph glyph-name="d" unicode="d" horiz-adv-x="556" 
d="M333 0v57c-32 -44 -72 -72 -129 -72c-101 0 -185 100 -185 198c0 155 128 219 199 219c48 0 93 -28 113 -69h2v312h-78v28h78c46 0 92 7 138 10v-655h57v-28h-195zM333 133v121c0 64 -47 122 -102 122c-30 0 -57 -15 -57 -48v-263c0 -30 15 -54 47 -54
c63 0 112 61 112 122z" />
    <glyph glyph-name="e" unicode="e" 
d="M416 210h-219v-129c0 -52 29 -70 81 -70c79 0 141 39 164 117l23 -8c-26 -93 -101 -135 -194 -135c-124 0 -236 70 -236 206s120 211 234 211c99 0 194 -69 194 -173c0 -24 -31 -19 -47 -19zM197 236h131v98c0 26 -22 42 -70 42c-43 0 -61 -19 -61 -46v-94z" />
    <glyph glyph-name="f" unicode="f" horiz-adv-x="333" 
d="M216 555v-159h86v-28h-86v-340h72v-28h-271v28h61v340h-68v28h68v57c0 164 120 230 208 230c80 0 117 -41 117 -83c0 -43 -24 -70 -66 -70c-30 0 -58 22 -58 55c0 21 6 29 12 36c6 6 12 9 12 19c0 12 -19 15 -28 15c-56 0 -59 -56 -59 -100z" />
    <glyph glyph-name="g" unicode="g" 
d="M379 -42h-269v-1c-47 -100 32 -151 115 -151c78 0 205 26 205 126c0 26 -32 26 -51 26zM180 325v-132c0 -29 38 -30 60 -30s51 8 51 30v132c0 42 -20 51 -53 51c-41 0 -58 -9 -58 -51zM115 86h264c69 0 91 -54 91 -115c0 -137 -132 -191 -250 -191
c-59 0 -198 28 -198 105c0 31 20 59 64 79c-37 20 -64 55 -64 98c0 62 39 90 94 105c-47 26 -68 60 -68 101c0 55 67 134 188 134c51 0 102 -15 144 -45c21 27 37 57 75 57c24 0 43 -24 43 -47c0 -27 -9 -48 -39 -48c-20 0 -36 13 -48 28l-9 -8c16 -19 28 -46 28 -70
c0 -104 -122 -130 -203 -130c-40 0 -78 3 -94 7c-20 5 -68 -13 -68 -40c0 -20 33 -20 50 -20z" />
    <glyph glyph-name="h" unicode="h" horiz-adv-x="556" 
d="M489 28h62v-28h-252v28h52v296c0 23 -24 34 -44 34c-45 0 -102 -67 -102 -148v-182h57v-28h-250v28h55v617h-62v28h62c46 0 92 7 138 10v-386h2c36 66 84 105 164 105c86 0 118 -40 118 -121v-253z" />
    <glyph glyph-name="i" unicode="i" horiz-adv-x="278" 
d="M74 28v340h-69v28h69c23 0 46 1 69 2s46 2 69 2v-372h61v-28h-264v28h65zM140 630c37 0 71 -33 71 -71s-33 -72 -71 -72s-72 34 -72 72s35 71 72 71z" />
    <glyph glyph-name="j" unicode="j" horiz-adv-x="315" 
d="M242 400v-311c0 -114 -17 -187 -73 -248c-33 -36 -77 -56 -126 -56c-46 0 -92 24 -92 72c0 29 25 54 55 54c24 0 52 -15 52 -41c0 -7 -1 -14 -2 -20c-3 -20 -6 -31 15 -35c41 -8 33 79 33 100v453h-69v28h69c23 0 46 1 69 2s46 2 69 2zM169 632c37 0 71 -33 71 -71
s-33 -72 -71 -72s-72 34 -72 72s35 71 72 71z" />
    <glyph glyph-name="k" unicode="k" horiz-adv-x="556" 
d="M282 368v28h212v-28h-71l-108 -95l197 -245h39v-28h-258v28h52l-134 171v20l168 149h-97zM59 645h-53v28h53c46 0 92 7 138 10v-655h66v-28h-255v28h51v617z" />
    <glyph glyph-name="l" unicode="l" horiz-adv-x="278" 
d="M66 28v617h-70v28h70c46 0 92 7 138 10v-655h65v-28h-263v28h60z" />
    <glyph glyph-name="m" unicode="m" horiz-adv-x="833" 
d="M208 400v-96c32 54 83 98 149 98c60 0 112 -30 123 -94c37 54 95 94 163 94c51 0 115 -22 115 -81v-293h65v-28h-251v28h52v278c0 27 -3 55 -39 55c-58 0 -102 -76 -102 -128v-205h52v-28h-238v28h52v248c0 66 -7 85 -44 85c-32 0 -97 -43 -97 -132v-201h52v-28h-241v28
h55v340h-64v28h64c45 0 89 4 134 4z" />
    <glyph glyph-name="n" unicode="n" horiz-adv-x="556" 
d="M211 400v-92c43 74 96 94 164 94c61 0 113 -18 113 -96v-278h62v-28h-250v28h54v255c0 64 -15 78 -43 78c-64 0 -100 -82 -100 -137v-196h53v-28h-251v28h64v340h-64v28h64c45 0 89 4 134 4z" />
    <glyph glyph-name="o" unicode="o" horiz-adv-x="556" 
d="M356 85v213c0 61 -11 78 -78 78c-61 0 -78 -17 -78 -78v-213c0 -58 30 -74 78 -74s78 16 78 74zM278 402c120 0 240 -81 240 -212c0 -129 -111 -205 -240 -205c-143 0 -240 95 -240 205c0 131 120 212 240 212z" />
    <glyph glyph-name="p" unicode="p" horiz-adv-x="556" 
d="M228 58v-245h84v-28h-273v28h51v555h-69v28h69c46 0 92 4 138 4v-88h2c30 56 59 90 127 90c114 0 185 -103 185 -210c0 -103 -77 -207 -186 -207c-50 0 -100 29 -125 73h-3zM228 243v-114c0 -41 51 -118 111 -118c33 0 47 20 47 50v248c0 33 -10 67 -50 67
c-56 0 -108 -90 -108 -133z" />
    <glyph glyph-name="q" unicode="q" horiz-adv-x="556" 
d="M468 368v-555h56v-28h-266v28h72v247c-30 -47 -75 -75 -131 -75c-104 0 -184 99 -184 199c0 110 77 220 194 218c56 -1 89 -30 121 -72v70c46 0 92 -4 138 -4h63v-28h-63zM171 309v-248c0 -22 3 -50 48 -50c59 0 111 75 111 118v114c0 63 -56 133 -110 133
c-26 0 -49 -17 -49 -67z" />
    <glyph glyph-name="r" unicode="r" horiz-adv-x="444" 
d="M219 400v-105h2c18 57 57 107 123 107c50 0 83 -32 83 -83c0 -40 -31 -70 -71 -70c-35 0 -63 23 -63 60c0 19 5 28 12 45c3 7 -23 18 -61 -53c-19 -36 -25 -53 -25 -93v-180h75v-28h-264v28h51v340h-53v28h53c46 0 92 4 138 4z" />
    <glyph glyph-name="s" unicode="s" horiz-adv-x="389" 
d="M90 21l-28 -21h-25v141h26c13 -71 73 -130 146 -130c35 0 94 23 94 68c0 51 -47 47 -86 51c-88 9 -184 26 -184 138c0 85 63 134 143 134c38 0 57 -11 92 -20c8 -2 22 11 29 20h20v-115h-28c-21 61 -47 89 -113 89c-31 0 -92 -11 -92 -54c0 -22 38 -39 82 -42
c112 -8 190 -35 190 -138c0 -80 -46 -157 -148 -157c-41 0 -84 14 -118 36z" />
    <glyph glyph-name="t" unicode="t" horiz-adv-x="333" 
d="M78 388v119h59c26 0 53 7 79 10v-129h76v-28h-76v-271c0 -20 -5 -51 24 -51c39 0 46 31 52 63l29 -6c-17 -81 -71 -110 -150 -110c-93 0 -93 40 -93 90v285h-61v28h61z" />
    <glyph glyph-name="u" unicode="u" horiz-adv-x="556" 
d="M348 -10v86h-2c-24 -64 -86 -91 -153 -91c-123 0 -121 56 -121 155v228h-69v28h69c23 0 46 1 69 2s46 2 69 2v-279c0 -55 -5 -95 40 -95c56 0 98 78 98 109v233h-69v28h69c23 0 46 1 69 2s46 2 69 2v-372h67v-28h-67c-23 0 -46 -2 -69 -5c-23 -2 -46 -5 -69 -5z" />
    <glyph glyph-name="v" unicode="v" 
d="M15 396h242v-28h-56l103 -236l84 208c13 32 -10 28 -26 28h-41v28h163v-28h-35c-13 0 -22 -10 -27 -21l-153 -362h-26l-185 383h-43v28z" />
    <glyph glyph-name="w" unicode="w" horiz-adv-x="667" 
d="M8 368v28h243v-28h-50l74 -206h2l99 234h29l101 -236h2l63 184c5 16 -11 24 -24 24h-38v28h151v-28h-37c-18 0 -19 -18 -22 -25l-129 -358h-21l-114 249h-1l-103 -249h-23l-151 383h-51z" />
    <glyph glyph-name="x" unicode="x" horiz-adv-x="556" 
d="M201 0h-176v28h47c30 0 55 39 74 60l73 81l-154 199h-46v28h261v-28h-53l80 -106l95 106h-68v28h166v-28h-56l-120 -128l156 -196c18 -22 43 -16 57 -16v-28h-262v28h54l-93 118l-92 -101c-17 -19 36 -17 57 -17v-28z" />
    <glyph glyph-name="y" unicode="y" 
d="M17 368v28h241v-28h-47l97 -216h4l76 186c9 22 -10 30 -25 30h-37v28h158v-28h-31c-21 0 -30 -31 -38 -49l-198 -460c-21 -48 -54 -79 -98 -79c-33 0 -64 30 -64 62c0 36 25 60 58 60c23 0 33 -10 41 -19s14 -17 24 -13c20 8 25 28 32 44l36 85l-185 369h-44z" />
    <glyph glyph-name="z" unicode="z" horiz-adv-x="444" 
d="M407 0h-374v20l224 348h-59c-59 0 -91 -34 -122 -128h-26l5 156h356v-25l-218 -343h69c75 0 99 81 125 139h25z" />
    <glyph glyph-name="braceleft" unicode="{" horiz-adv-x="280" 
d="M184 98v-196c0 -66 14 -101 68 -120v-2c-43 0 -80 -5 -119 25c-33 29 -36 72 -36 117v194c0 34 1 54 -18 80c-13 21 -31 32 -51 37v2c59 16 69 47 69 115v174c0 40 1 92 27 122c33 40 86 37 128 37v-3c-52 -18 -68 -54 -68 -119v-182c0 -76 -9 -128 -75 -144v-2
c63 -17 75 -63 75 -135z" />
    <glyph glyph-name="bar" unicode="|" horiz-adv-x="560" 
d="M240 -250v1000h81v-1000h-81z" />
    <glyph glyph-name="braceright" unicode="}" horiz-adv-x="280" 
d="M96 -98v196c0 72 12 118 75 135v2c-66 16 -75 68 -75 144v182c0 65 -16 101 -68 119v3c42 0 95 3 128 -37c26 -30 27 -82 27 -122v-174c0 -68 10 -99 69 -115v-2c-20 -5 -38 -16 -51 -37c-19 -26 -18 -46 -18 -80v-194c0 -45 -3 -88 -36 -117c-39 -30 -76 -25 -119 -25v2
c54 19 68 54 68 120z" />
    <glyph glyph-name="asciitilde" unicode="~" 
d="M436 301l63 -40c-36 -51 -72 -104 -142 -104c-32 0 -58 10 -88 21l-42 16c-23 9 -53 22 -77 22c-45 0 -65 -40 -87 -73l-62 41c34 55 76 109 147 109c37 0 77 -15 113 -29c37 -14 71 -29 96 -29c38 0 60 39 79 66z" />
    <glyph glyph-name="exclamdown" unicode="&#xa1;" horiz-adv-x="333" 
d="M163 459c44 0 83 -37 83 -82c0 -46 -38 -82 -83 -82s-82 38 -82 82s38 82 82 82zM148 228h30c-1 -45 1 -89 3 -134c3 -52 19 -104 41 -152c9 -19 20 -49 20 -71c0 -47 -24 -91 -76 -91c-58 0 -82 44 -82 91c0 22 11 52 20 71c22 48 38 100 41 152c2 45 4 89 3 134z" />
    <glyph glyph-name="cent" unicode="&#xa2;" horiz-adv-x="611" 
d="M264 47l86 228c-6 18 3 49 15 57c6 4 14 16 13 22c-3 21 -37 24 -53 24c-39 0 -75 -17 -75 -82v-176c0 -28 4 -54 14 -73zM376 237l-80 -214c80 -24 150 28 181 104l22 -12c-33 -94 -125 -143 -215 -124l-51 -136h-40l54 146c-81 28 -149 100 -149 189
c0 122 111 212 228 212c22 0 46 -3 68 -10l45 118h40l-51 -135c29 -19 56 -48 56 -82c0 -56 -61 -88 -108 -56z" />
    <glyph glyph-name="sterling" unicode="&#xa3;" horiz-adv-x="611" 
d="M142 131c-35 0 -61 -24 -61 -60c0 -39 25 -58 63 -58c37 0 74 23 93 54c-22 40 -48 64 -95 64zM162 325h-95v50h85c-4 24 -6 48 -6 72c0 153 121 218 225 218c86 0 194 -41 194 -142c0 -43 -30 -78 -73 -78c-39 0 -73 25 -73 68c0 23 11 38 22 51s21 24 21 38
c0 26 -49 33 -67 33c-99 0 -127 -40 -86 -169c11 -35 23 -70 27 -91h113v-50h-109c5 -18 5 -36 5 -54c0 -50 -15 -102 -38 -147c28 -7 58 -10 87 -10c100 0 134 39 147 136h31c0 -167 -58 -265 -181 -265c-48 0 -93 23 -129 54c-32 -32 -77 -54 -123 -54
c-56 0 -104 25 -104 86c0 55 50 94 102 94c43 0 82 -25 103 -29c0 27 -9 62 -47 134c-10 19 -21 37 -31 55z" />
    <glyph glyph-name="fraction" unicode="&#x2044;" horiz-adv-x="167" 
d="M333 665l-449 -665h-52l449 665h52z" />
    <glyph glyph-name="yen" unicode="&#xa5;" horiz-adv-x="611" 
d="M226 635l144 -270l115 244c7 15 -7 26 -26 26h-53v30h191v-30h-34c-25 0 -35 -5 -58 -55l-120 -255v-47h122v-44h-122v-44h122v-44h-122v-116h80v-30h-307v30h76v116h-121v44h121v44h-121v44h121v22l-173 335h-56v30h288v-30h-67z" />
    <glyph glyph-name="florin" unicode="&#x192;" horiz-adv-x="611" 
d="M397 353l-29 -169c-21 -123 -65 -263 -158 -351c-37 -35 -92 -57 -147 -53c-50 4 -87 30 -94 85c-4 32 30 61 60 61c31 0 58 -18 58 -52c0 -24 -20 -43 -20 -51c0 -12 12 -15 23 -15c54 0 81 55 98 123c17 67 22 147 31 195l41 227h-111l7 28h112c25 120 129 284 262 284
c51 0 112 -29 112 -87c0 -36 -26 -59 -61 -59c-33 0 -56 25 -56 57c0 11 4 19 8 27c11 22 10 34 -14 34c-94 0 -100 -189 -115 -256h120l-6 -28h-121z" />
    <glyph glyph-name="section" unicode="&#xa7;" 
d="M249 683c54 0 138 -32 138 -96c0 -33 -21 -63 -57 -63c-30 0 -56 24 -56 54c0 23 22 37 36 52c3 2 4 9 1 15c-9 14 -35 20 -53 20c-46 0 -87 -25 -87 -74c0 -41 33 -68 153 -158c84 -63 114 -136 114 -179c0 -74 -47 -120 -121 -118v-10c43 -32 81 -79 81 -135
c0 -92 -79 -131 -161 -131c-57 0 -140 31 -140 99c0 41 21 62 62 62c28 0 53 -22 53 -51c0 -37 -40 -44 -40 -58c0 -23 51 -32 68 -32c48 0 85 22 85 74c0 33 -17 55 -43 74c-45 33 -142 112 -178 152c-29 32 -41 63 -41 106c0 77 47 127 125 120v10c-47 41 -83 75 -83 142
c0 93 84 125 144 125zM186 387c-35 0 -60 -29 -60 -63c0 -47 63 -93 95 -120c34 -29 64 -49 90 -49c36 0 62 29 62 64c0 34 -31 62 -54 84c-31 29 -89 84 -133 84z" />
    <glyph glyph-name="currency" unicode="&#xa4;" horiz-adv-x="611" 
d="M92 153l36 37c-26 39 -39 76 -39 124c0 49 11 87 39 127l-36 36l50 52l37 -37c38 28 83 40 130 40c46 0 85 -14 123 -40l37 37l51 -52l-37 -36c28 -42 39 -81 39 -131c0 -47 -14 -82 -39 -120l37 -37l-51 -51l-37 37c-38 -27 -84 -41 -130 -41s-86 15 -123 41l-37 -37z
M309 443c-74 0 -131 -55 -131 -130c0 -72 60 -124 130 -124c69 0 124 60 124 127s-55 127 -123 127z" />
    <glyph glyph-name="quotesingle" unicode="'" horiz-adv-x="220" 
d="M82 433l-22 178c0 36 11 72 53 72c32 0 47 -25 47 -54c0 -18 -2 -33 -5 -50l-23 -138c-2 -15 -4 -44 -25 -44c-20 0 -22 21 -25 36z" />
    <glyph glyph-name="quotedblleft" unicode="&#x201c;" 
d="M161 683l6 -25c-53 -28 -100 -83 -100 -146c0 -17 1 -39 12 -52c8 36 34 54 70 54c38 0 68 -34 68 -71c0 -49 -38 -86 -86 -86c-73 0 -112 62 -112 129c0 88 64 163 142 197zM425 683l6 -25c-53 -28 -100 -83 -100 -146c0 -17 1 -39 12 -52c8 36 34 54 70 54
c38 0 68 -34 68 -71c0 -49 -38 -86 -86 -86c-73 0 -112 62 -112 129c0 88 64 163 142 197z" />
    <glyph glyph-name="guillemotleft" unicode="&#xab;" 
d="M237 199v7c57 48 115 96 169 147c8 4 16 1 16 -9c0 -11 -84 -126 -96 -143c18 -21 99 -126 99 -146c0 -5 -8 -9 -14 -4c-52 47 -118 101 -174 148zM75 199v7c57 48 115 96 169 147c8 4 16 1 16 -9c0 -11 -84 -126 -96 -143c18 -21 99 -126 99 -146c0 -5 -8 -9 -14 -4
c-52 47 -118 101 -174 148z" />
    <glyph glyph-name="guilsinglleft" unicode="&#x2039;" horiz-adv-x="333" 
d="M73 199v7c57 48 115 96 169 147c8 4 16 1 16 -9c0 -11 -84 -126 -96 -143c18 -21 99 -126 99 -146c0 -5 -8 -9 -14 -4c-52 47 -118 101 -174 148z" />
    <glyph glyph-name="guilsinglright" unicode="&#x203a;" horiz-adv-x="333" 
d="M260 206v-7c-56 -47 -122 -101 -174 -148c-6 -5 -14 -1 -14 4c0 20 81 125 99 146c-12 17 -96 132 -96 143c0 10 8 13 16 9c54 -51 112 -99 169 -147z" />
    <glyph glyph-name="fi" unicode="&#xfb01;" horiz-adv-x="556" 
d="M212 368v-340h51v-28h-257v30h68v338h-68v28h70c21 207 99 287 242 287c54 0 143 -24 143 -94c0 -39 -29 -66 -67 -66s-72 38 -60 76c4 12 13 26 13 38c0 19 -25 18 -39 18c-81 0 -96 -89 -96 -153v-106h146c23 0 45 1 68 2c22 1 45 2 67 2v-372h58v-28h-251v28h55v340
h-143z" />
    <glyph glyph-name="fl" unicode="&#xfb02;" horiz-adv-x="556" 
d="M211 396h143v132c-26 9 -44 30 -44 59c0 15 4 24 12 35c17 21 3 33 -24 33c-36 0 -87 -47 -87 -133v-126zM73 28v340h-65v28h65c-9 141 88 287 232 287c18 0 36 -5 53 -9s35 -8 52 -5l82 14v-655h58v-28h-248v28h52v340h-143v-340h52v-28h-257v28h67z" />
    <glyph glyph-name="endash" unicode="&#x2013;" 
d="M0 150v102h500v-102h-500z" />
    <glyph glyph-name="dagger" unicode="&#x2020;" 
d="M265 -159h-30c-4 153 -4 292 -56 421c37 52 60 112 54 174c-20 0 -63 -11 -87 -27c-13 -9 -40 -17 -53 -17c-32 0 -51 25 -51 55s19 55 51 55c13 0 40 -8 53 -17c24 -16 67 -27 87 -27c2 37 -1 61 -17 96c-11 24 -27 50 -27 75c0 36 28 54 61 54s61 -18 61 -54
c0 -25 -16 -51 -27 -75c-16 -35 -19 -59 -17 -96c20 0 63 11 87 27c13 9 40 17 53 17c32 0 51 -25 51 -55s-19 -55 -51 -55c-13 0 -40 8 -53 17c-24 16 -67 27 -87 27c-6 -62 17 -122 54 -174c-52 -129 -52 -268 -56 -421z" />
    <glyph glyph-name="daggerdbl" unicode="&#x2021;" 
d="M250 683c33 0 61 -18 61 -54c0 -25 -16 -51 -27 -75c-16 -35 -19 -59 -17 -96c20 0 63 11 87 27c13 9 40 17 53 17c32 0 51 -25 51 -55s-19 -55 -51 -55c-13 0 -40 8 -53 17c-24 16 -67 27 -87 27c-6 -62 17 -122 54 -174c-37 -52 -60 -112 -54 -174c20 0 63 11 87 27
c13 9 40 17 53 17c32 0 51 -25 51 -55s-19 -55 -51 -55c-13 0 -40 8 -53 17c-24 16 -67 27 -87 27c-2 -37 1 -61 17 -96c11 -24 27 -50 27 -75c0 -36 -28 -54 -61 -54s-61 18 -61 54c0 25 16 51 27 75c16 35 19 59 17 96c-20 0 -63 -11 -87 -27c-13 -9 -40 -17 -53 -17
c-32 0 -51 25 -51 55s19 55 51 55c13 0 40 -8 53 -17c24 -16 67 -27 87 -27c6 62 -17 122 -54 174c37 52 60 112 54 174c-20 0 -63 -11 -87 -27c-13 -9 -40 -17 -53 -17c-32 0 -51 25 -51 55s19 55 51 55c13 0 40 -8 53 -17c24 -16 67 -27 87 -27c2 37 -1 61 -17 96
c-11 24 -27 50 -27 75c0 36 28 54 61 54z" />
    <glyph glyph-name="periodcentered" unicode="&#xb7;" horiz-adv-x="333" 
d="M165 304c44 0 83 -37 83 -82c0 -46 -38 -82 -83 -82s-82 38 -82 82s38 82 82 82z" />
    <glyph glyph-name="paragraph" unicode="&#xb6;" horiz-adv-x="660" 
d="M582 683v-69h-62v-753h-74v753h-77v-754h-74v385c-96 0 -216 75 -216 220s120 218 216 218h287z" />
    <glyph glyph-name="bullet" unicode="&#x2022;" horiz-adv-x="620" 
d="M138 334c0 85 78 155 172 155s172 -70 172 -155s-78 -155 -172 -155s-172 70 -172 155z" />
    <glyph glyph-name="quotesinglbase" unicode="&#x201a;" horiz-adv-x="333" 
d="M124 -184l-6 26c55 30 99 81 99 146c0 18 -1 36 -11 51c-7 -35 -36 -54 -71 -54c-39 0 -67 33 -67 70c0 49 37 87 86 87c71 0 112 -65 112 -130c0 -86 -67 -162 -142 -196z" />
    <glyph glyph-name="quotedblbase" unicode="&#x201e;" 
d="M339 -184l-6 26c55 30 99 81 99 146c0 18 -1 36 -11 51c-7 -35 -36 -54 -71 -54c-39 0 -67 33 -67 70c0 49 37 87 86 87c71 0 112 -65 112 -130c0 -86 -67 -162 -142 -196zM76 -184l-6 26c55 30 99 81 99 146c0 18 -1 36 -11 51c-7 -35 -36 -54 -71 -54
c-39 0 -67 33 -67 70c0 49 37 87 86 87c71 0 112 -65 112 -130c0 -86 -67 -162 -142 -196z" />
    <glyph glyph-name="quotedblright" unicode="&#x201d;" 
d="M338 357l-5 25c54 29 99 82 99 146c0 18 -1 36 -11 52c-10 -37 -33 -54 -71 -54c-39 0 -67 32 -67 70c0 48 36 87 85 87c72 0 113 -64 113 -130c0 -84 -67 -166 -143 -196zM74 357l-5 25c54 29 99 82 99 146c0 18 -1 36 -11 52c-10 -37 -33 -54 -71 -54
c-39 0 -67 32 -67 70c0 48 36 87 85 87c72 0 113 -64 113 -130c0 -84 -67 -166 -143 -196z" />
    <glyph glyph-name="guillemotright" unicode="&#xbb;" 
d="M425 206v-7c-56 -47 -122 -101 -174 -148c-6 -5 -14 -1 -14 4c0 20 81 125 99 146c-12 17 -96 132 -96 143c0 10 8 13 16 9c54 -51 112 -99 169 -147zM263 206v-7c-56 -47 -122 -101 -174 -148c-6 -5 -14 -1 -14 4c0 20 81 125 99 146c-12 17 -96 132 -96 143
c0 10 8 13 16 9c54 -51 112 -99 169 -147z" />
    <glyph glyph-name="ellipsis" unicode="&#x2026;" horiz-adv-x="1000" 
d="M166 149c44 0 83 -37 83 -82c0 -46 -38 -82 -83 -82s-82 38 -82 82s38 82 82 82zM499 149c44 0 83 -37 83 -82c0 -46 -38 -82 -83 -82s-82 38 -82 82s38 82 82 82zM832 149c44 0 83 -37 83 -82c0 -46 -38 -82 -83 -82s-82 38 -82 82s38 82 82 82z" />
    <glyph glyph-name="perthousand" unicode="&#x2030;" horiz-adv-x="1000" 
d="M696 125c0 99 85 208 189 208c75 0 110 -48 110 -120c0 -51 -14 -102 -40 -146c-28 -47 -72 -85 -130 -85c-87 0 -129 62 -129 143zM911 300c-71 0 -117 -168 -117 -225c0 -37 11 -60 50 -65c20 -3 56 16 89 69c19 30 37 99 37 135s-13 86 -59 86zM464 -18
c-86 0 -130 62 -130 143c0 98 87 208 190 208c75 0 110 -48 110 -120c0 -61 -22 -131 -62 -177c-27 -31 -65 -54 -108 -54zM550 300c-71 0 -117 -168 -117 -225c0 -38 11 -60 50 -65c44 -6 126 91 126 204c0 36 -14 86 -59 86zM542 701h25l-445 -751h-49l398 670l-2 2
c-28 -25 -73 -38 -111 -38c-18 0 -40 6 -57 13c18 -106 -40 -275 -168 -275c-82 0 -126 65 -126 142c0 124 108 210 190 210c42 0 60 -15 78 -30c19 -15 38 -30 84 -30c66 0 127 40 149 77c8 14 26 10 34 10zM104 419c0 -36 11 -66 52 -66c79 0 122 138 122 202
c0 17 -2 33 -8 49c-22 8 -46 20 -61 30c-44 6 -105 -120 -105 -215z" />
    <glyph glyph-name="questiondown" unicode="&#xbf;" horiz-adv-x="444" 
d="M254 240h26c8 -32 22 -75 22 -107c0 -57 -41 -104 -82 -145s-81 -78 -81 -113c0 -58 52 -72 101 -72c24 0 83 10 88 41c1 7 -23 6 -41 26c-11 12 -18 30 -18 46c0 40 31 57 67 57c39 0 64 -29 64 -67c0 -39 -27 -74 -58 -95c-40 -27 -66 -31 -113 -31
c-95 0 -184 60 -184 162c0 83 48 117 110 162c101 74 114 79 99 136zM251 459c44 0 83 -37 83 -82c0 -46 -38 -82 -83 -82s-82 38 -82 82s38 82 82 82z" />
    <glyph glyph-name="grave" unicode="`" horiz-adv-x="333" 
d="M186 498l-137 88c-20 13 -41 26 -41 53c0 24 20 44 44 44c45 0 71 -43 98 -74l97 -111h-61z" />
    <glyph glyph-name="acute" unicode="&#xb4;" horiz-adv-x="333" 
d="M285 586l-137 -88h-61l97 111c27 31 53 74 98 74c24 0 44 -20 44 -44c0 -27 -21 -40 -41 -53z" />
    <glyph glyph-name="circumflex" unicode="&#x2c6;" horiz-adv-x="333" 
d="M120 668h93l123 -174l-2 -2h-56l-111 98l-115 -98h-51l-2 2z" />
    <glyph glyph-name="tilde" unicode="&#x2dc;" horiz-adv-x="333" 
d="M307 648h43c-15 -64 -46 -126 -121 -126c-31 0 -59 12 -85 24c-25 12 -49 24 -72 24c-21 0 -41 -22 -45 -47h-42c9 63 47 125 118 125c28 0 57 -12 83 -24c27 -13 51 -25 69 -25c31 0 42 24 52 49z" />
    <glyph glyph-name="macron" unicode="&#xaf;" horiz-adv-x="333" 
d="M332 596h-331v72h331v-72z" />
    <glyph glyph-name="breve" unicode="&#x2d8;" horiz-adv-x="333" 
d="M15 668h44c9 -61 50 -87 109 -87c58 0 97 30 106 87h44c-3 -93 -52 -163 -151 -163s-153 68 -152 163z" />
    <glyph glyph-name="dotaccent" unicode="&#x2d9;" horiz-adv-x="333" 
d="M165 553c-34 0 -62 32 -62 65c0 34 28 65 62 65c35 0 65 -29 65 -65s-29 -65 -65 -65z" />
    <glyph glyph-name="dieresis" unicode="&#xa8;" horiz-adv-x="333" 
d="M271 518c-34 0 -62 32 -62 65c0 34 28 65 62 65c35 0 65 -29 65 -65s-29 -65 -65 -65zM60 518c-34 0 -62 32 -62 65c0 34 28 65 62 65c35 0 65 -29 65 -65s-29 -65 -65 -65z" />
    <glyph glyph-name="ring" unicode="&#x2da;" horiz-adv-x="333" 
d="M166 470c-59 0 -106 49 -106 107c0 57 48 106 106 106s107 -47 107 -106c0 -60 -48 -107 -107 -107zM166 634c-31 0 -58 -26 -58 -57s27 -58 58 -58s59 28 59 58c0 31 -28 57 -59 57z" />
    <glyph glyph-name="cedilla" unicode="&#xb8;" horiz-adv-x="333" 
d="M103 -104l-10 8l42 96h42l-28 -64c11 4 23 5 35 5c48 0 87 -21 87 -74c0 -70 -86 -85 -139 -85c-25 0 -65 9 -88 18l16 37c25 -11 45 -13 72 -13c23 0 45 16 45 40c0 25 -21 36 -43 36c-10 0 -21 -1 -31 -4z" />
    <glyph glyph-name="hungarumlaut" unicode="&#x2dd;" horiz-adv-x="333" 
d="M145 586l-137 -88h-61l97 111c27 31 53 74 98 74c24 0 44 -20 44 -44c0 -27 -21 -40 -41 -53zM346 586l-137 -88h-61l97 111c27 31 53 74 98 74c24 0 44 -20 44 -44c0 -27 -21 -40 -41 -53z" />
    <glyph glyph-name="ogonek" unicode="&#x2db;" horiz-adv-x="333" 
d="M252 -66l18 -30c-12 -12 -27 -22 -43 -32c-23 -14 -59 -17 -90 -15c-30 2 -57 15 -69 48c-18 50 30 95 105 95h49l-6 -11l-31 -6c-22 -4 -37 -25 -33 -47c3 -17 26 -25 44 -27c20 -2 38 13 56 25z" />
    <glyph glyph-name="caron" unicode="&#x2c7;" horiz-adv-x="333" 
d="M212 492h-93l-121 174l2 2h53l113 -99l111 99h56l2 -2z" />
    <glyph glyph-name="emdash" unicode="&#x2014;" horiz-adv-x="1000" 
d="M0 150v102h1000v-102h-1000z" />
    <glyph glyph-name="AE" unicode="&#xc6;" horiz-adv-x="1000" 
d="M262 318h177v320h-22c-51 -106 -105 -212 -155 -320zM153 31h55v-31h-187v30h43c22 0 28 9 37 26l169 349c22 46 71 132 71 179c0 31 -26 54 -78 54h-32v30h684l6 -180h-34c-42 113 -86 150 -186 150h-94v-279c98 0 119 29 139 121h33v-284h-33c-14 96 -41 128 -139 128
v-294h98c155 0 183 73 210 189h31l-6 -219h-584v30h83v258h-194c-11 -31 -107 -229 -107 -242c0 -7 8 -15 15 -15z" />
    <glyph glyph-name="ordfeminine" unicode="&#xaa;" horiz-adv-x="300" 
d="M170 502v61c-35 -2 -83 -6 -83 -48c0 -21 12 -48 38 -48c30 0 45 19 45 35zM170 578v40c0 31 2 50 -46 50c-7 0 -34 -4 -34 -15c0 -3 3 -8 6 -12c4 -5 7 -11 7 -15c0 -26 -14 -42 -42 -42c-23 0 -41 13 -41 36c0 47 70 63 110 63c84 0 120 -22 120 -39v-146
c0 -13 0 -28 19 -28c4 0 13 4 16 9l11 -12c-17 -25 -36 -34 -67 -34c-28 0 -51 22 -58 41c-23 -24 -56 -41 -91 -41s-76 19 -76 56c0 70 108 87 166 89z" />
    <glyph glyph-name="Lslash" unicode="&#x141;" horiz-adv-x="611" 
d="M261 395v-365h112c113 0 155 94 186 189h28l-10 -219h-552v30h68v258l-53 -34l-15 26l68 44v314h-68v30h326v-30h-90v-207l98 62l15 -26z" />
    <glyph glyph-name="Oslash" unicode="&#xd8;" horiz-adv-x="778" 
d="M245 431v-168c0 -38 0 -70 2 -92l274 394c-17 70 -57 88 -132 88c-110 0 -144 -40 -144 -222zM534 263v168c0 29 -1 54 -3 74l-278 -400c13 -73 47 -90 136 -90c137 0 145 40 145 248zM565 628l54 78h52l-71 -102c74 -56 132 -144 132 -263c0 -197 -147 -356 -343 -356
c-68 0 -130 19 -182 53l-75 -108h-52l92 134c-78 66 -125 165 -125 277c0 227 212 342 342 342c52 0 117 -18 176 -55z" />
    <glyph glyph-name="OE" unicode="&#x152;" horiz-adv-x="1056" 
d="M497 183v288c0 117 -17 167 -127 167c-95 0 -140 -59 -141 -163v-261c0 -143 59 -184 140 -184c102 0 128 34 128 153zM998 0h-583c-170 0 -220 40 -284 99s-97 140 -97 224c0 187 144 345 330 345h609l6 -180h-34c-42 113 -86 150 -186 150h-94v-279
c98 0 119 29 139 121h33v-284h-33c-14 96 -41 128 -139 128v-294h98c155 0 183 73 210 189h31z" />
    <glyph glyph-name="ordmasculine" unicode="&#xba;" horiz-adv-x="334" 
d="M218 493v128c0 36 -7 47 -49 47s-53 -11 -53 -47v-128c0 -35 20 -44 51 -44s51 9 51 44zM167 683c78 0 156 -48 156 -127c0 -77 -72 -123 -156 -123c-93 0 -156 57 -156 123c0 79 78 127 156 127z" />
    <glyph glyph-name="ae" unicode="&#xe6;" horiz-adv-x="722" 
d="M418 236h131v98c0 26 -22 42 -70 42c-43 0 -61 -19 -61 -46v-94zM286 228v110c0 37 -42 38 -64 38c-13 0 -56 -1 -56 -20c0 -6 5 -13 11 -22c7 -11 10 -24 10 -35c0 -40 -32 -60 -67 -60c-34 0 -58 31 -58 63c0 82 109 100 171 100c57 0 93 -11 138 -46
c30 32 74 46 117 46c90 0 197 -70 197 -168c0 -12 -1 -24 -11 -24h-256v-129c0 -52 29 -70 81 -70c79 0 141 39 164 117l23 -8c-26 -93 -101 -135 -194 -135c-67 0 -151 20 -190 85c-29 -54 -90 -85 -150 -85c-56 0 -116 26 -116 92c0 122 160 144 250 151zM286 116v86
c-66 -7 -125 -1 -125 -85c0 -45 26 -75 70 -75c30 0 55 31 55 74z" />
    <glyph glyph-name="dotlessi" unicode="&#x131;" horiz-adv-x="278" 
d="M74 28v340h-69v28h69c23 0 46 1 69 2s46 2 69 2v-372h61v-28h-264v28h65z" />
    <glyph glyph-name="lslash" unicode="&#x142;" horiz-adv-x="278" 
d="M67 28v315l-63 -37l-17 20l80 47v272h-70v28h70c46 0 92 7 138 10v-228l59 35l17 -20l-76 -45v-397h65v-28h-263v28h60z" />
    <glyph glyph-name="oslash" unicode="&#xf8;" horiz-adv-x="556" 
d="M200 298v-200l150 250c-9 21 -29 28 -72 28c-61 0 -78 -17 -78 -78zM474 481l-67 -112c64 -34 111 -97 111 -179c0 -129 -111 -205 -240 -205c-33 0 -64 5 -92 16l-64 -106h-44l73 121c-71 35 -113 101 -113 174c0 131 120 212 240 212c32 0 65 -6 94 -17l58 96h44z
M356 85v199l-146 -243c12 -23 36 -30 68 -30c48 0 78 16 78 74z" />
    <glyph glyph-name="oe" unicode="&#x153;" horiz-adv-x="778" 
d="M193 298v-236c0 -40 34 -51 70 -51c39 0 76 13 76 51v236c0 63 -21 78 -74 78c-56 0 -72 -25 -72 -78zM477 236h131v98c0 26 -22 42 -70 42c-43 0 -61 -19 -61 -46v-94zM710 210h-233v-129c0 -52 29 -70 81 -70c79 0 141 39 164 117l23 -8c-26 -93 -101 -135 -194 -135
c-52 0 -102 18 -142 53c-47 -41 -101 -53 -162 -53c-81 0 -216 69 -216 207c0 124 112 210 228 210c101 0 125 -34 151 -53c35 42 79 53 131 53c124 0 203 -75 203 -168c0 -23 -18 -24 -34 -24z" />
    <glyph glyph-name="germandbls" unicode="&#xdf;" horiz-adv-x="556" 
d="M64 30v449c0 118 84 189 217 189c150 0 211 -94 211 -147c0 -106 -72 -137 -163 -158v-2c115 -13 199 -63 199 -190c0 -90 -60 -185 -177 -185c-53 0 -116 28 -116 89c0 28 19 57 49 57c28 0 45 -18 45 -46c0 -33 -28 -46 -28 -58s15 -14 24 -14c30 0 51 28 51 55v172
c0 81 -33 107 -113 107c-13 0 -16 23 -7 24c51 5 94 5 94 63v132c0 49 -28 73 -76 73c-70 0 -72 -65 -72 -118v-522h-192v30h54z" />
    <glyph glyph-name="onesuperior" unicode="&#xb9;" horiz-adv-x="366" 
d="M311 266h-255v18h81v337c0 13 -10 18 -26 18h-55v18l176 8v-381h79v-18z" />
    <glyph glyph-name="logicalnot" unicode="&#xac;" 
d="M392 62v188h-363v81h443v-269h-80z" />
    <glyph glyph-name="mu" unicode="&#xb5;" horiz-adv-x="556" 
d="M348 -10v86h-2c-24 -64 -86 -91 -153 -91c-14 0 -11 -29 -4 -52s18 -52 21 -83c3 -36 -28 -70 -69 -70c-39 0 -71 28 -69 70c3 57 40 126 14 175c-14 27 -14 66 -14 115v228h-69v28h69c23 0 46 1 69 2s46 2 69 2v-279c0 -55 -5 -95 40 -95c56 0 98 78 98 109v233h-69v28
h69c23 0 46 1 69 2s46 2 69 2v-372h67v-28h-67c-23 0 -46 -2 -69 -5c-23 -2 -46 -5 -69 -5z" />
    <glyph glyph-name="trademark" unicode="&#x2122;" horiz-adv-x="860" 
d="M22 558l6 110h335l4 -110h-14c-19 61 -36 100 -112 94v-308h46v-15h-184v15h46v308c-76 6 -93 -33 -112 -94h-15zM794 652v-308h45v-15h-182v15h48v307h-2l-106 -322h-20l-105 322h-1v-276c0 -34 20 -31 52 -31v-15h-118v15c31 0 50 -3 50 31v277h-50v16h156l63 -205
l66 205h149v-16h-45z" />
    <glyph glyph-name="Eth" unicode="&#xd0;" horiz-adv-x="778" 
d="M119 30v313h-77v39h77v256h-75v30h372c174 0 311 -153 311 -329c0 -226 -157 -322 -288 -334c-33 -3 -67 -5 -101 -5h-294v30h75zM287 638v-256h121v-39h-121v-313h95c87 0 125 37 142 93c9 29 11 62 11 99v235c0 79 -11 105 -19 122c-19 42 -54 59 -134 59h-95z" />
    <glyph glyph-name="onehalf" unicode="&#xbd;" horiz-adv-x="916" 
d="M338 266h-255v18h81v337c0 13 -10 18 -26 18h-55v18l176 8v-381h79v-18zM809 131h23l-7 -131h-312v53c38 27 77 54 115 81c65 45 96 77 96 155c0 45 -26 89 -80 89c-19 0 -42 -7 -58 -16c-7 -4 -29 -20 -29 -28s11 -8 16 -8c30 0 58 -13 58 -44c0 -28 -22 -42 -51 -42
c-36 0 -54 28 -54 58c0 54 55 101 154 101c72 0 153 -27 153 -105c0 -43 -28 -72 -61 -99c-58 -47 -130 -79 -193 -119h207c30 0 20 37 23 55zM701 665l-449 -665h-52l449 665h52z" />
    <glyph glyph-name="plusminus" unicode="&#xb1;" 
d="M29 322h181v122h81v-122h181v-81h-181v-123h-81v123h-181v81zM472 0h-443v81h443v-81z" />
    <glyph glyph-name="Thorn" unicode="&#xde;" horiz-adv-x="667" 
d="M281 516v-299h69c81 0 113 13 113 92v115c0 79 -32 92 -113 92h-69zM281 187v-157h90v-30h-333v30h75v608h-75v30h333v-30h-90v-92h129c171 0 239 -92 239 -171c0 -161 -189 -188 -308 -188h-60z" />
    <glyph glyph-name="onequarter" unicode="&#xbc;" horiz-adv-x="916" 
d="M674 399h65v-272h43c33 0 20 22 23 44h18v-104h-18c0 39 6 42 -38 42h-28v-91h51v-18h-208v18h57v91h-171c1 17 -6 18 6 33zM488 127h151v197zM732 665l-449 -665h-52l449 665h52zM348 266h-255v18h81v337c0 13 -10 18 -26 18h-55v18l176 8v-381h79v-18z" />
    <glyph glyph-name="divide" unicode="&#xf7;" 
d="M472 182h-443v81h443v-81zM251 314c-34 0 -62 32 -62 65c0 34 28 65 62 65c35 0 65 -29 65 -65s-29 -65 -65 -65zM251 1c-34 0 -62 32 -62 65c0 34 28 65 62 65c35 0 65 -29 65 -65s-29 -65 -65 -65z" />
    <glyph glyph-name="brokenbar" unicode="&#xa6;" horiz-adv-x="560" 
d="M240 -175v350h81v-350h-81zM240 325v350h81v-350h-81z" />
    <glyph glyph-name="degree" unicode="&#xb0;" horiz-adv-x="400" 
d="M350 515c0 -83 -68 -150 -150 -150c-83 0 -150 67 -150 150c-1 82 67 150 150 150c82 0 150 -68 150 -150zM199 609c-51 0 -94 -43 -93 -94c0 -52 42 -94 94 -94c51 0 95 42 94 94c1 51 -43 94 -95 94z" />
    <glyph glyph-name="thorn" unicode="&#xfe;" horiz-adv-x="556" 
d="M90 -187v832h-69v28h69c46 0 92 4 138 10v-371h2c30 56 59 90 127 90c114 0 185 -103 185 -210c0 -103 -77 -207 -186 -207c-50 0 -100 29 -125 73h-3v-245h84v-28h-273v28h51zM228 243v-114c0 -41 51 -118 111 -118c33 0 47 20 47 50v248c0 33 -10 67 -50 67
c-56 0 -108 -90 -108 -133z" />
    <glyph glyph-name="threequarters" unicode="&#xbe;" horiz-adv-x="916" 
d="M674 399h65v-272h43c33 0 20 22 23 44h18v-104h-18c0 39 6 42 -38 42h-28v-91h51v-18h-208v18h57v91h-171c1 17 -6 18 6 33zM488 127h151v197zM740 665l-449 -665h-52l449 665h52zM262 490v-2c68 -11 150 -25 150 -106c0 -79 -102 -116 -196 -116c-76 0 -123 41 -123 75
c0 27 14 50 47 50c27 0 51 -15 51 -42c0 -18 -9 -27 -17 -33c-9 -6 -18 -9 -18 -15c0 -13 54 -18 63 -18c53 0 81 34 81 88c0 74 -28 104 -100 104c-14 0 -26 -1 -38 -1c-10 0 -9 16 -1 18c13 1 26 1 39 3c66 6 84 31 84 90c0 54 -14 72 -61 72c-10 0 -46 0 -46 -15
c0 -5 8 -7 16 -12c7 -6 15 -14 15 -32c0 -25 -19 -41 -46 -41c-24 0 -43 19 -43 41c0 46 49 76 124 76c59 0 144 -23 144 -90c0 -61 -72 -83 -125 -94z" />
    <glyph glyph-name="twosuperior" unicode="&#xb2;" horiz-adv-x="366" 
d="M335 266h-312v53c38 27 77 54 115 81c65 45 96 77 96 155c0 45 -26 89 -80 89c-19 0 -42 -7 -58 -16c-7 -4 -29 -20 -29 -28s11 -8 16 -8c30 0 58 -13 58 -44c0 -28 -22 -42 -51 -42c-36 0 -54 28 -54 58c0 54 55 101 154 101c72 0 153 -27 153 -105
c0 -43 -28 -72 -61 -99c-58 -47 -130 -79 -193 -119h207c30 0 20 37 23 55h23z" />
    <glyph glyph-name="registered" unicode="&#xae;" horiz-adv-x="760" 
d="M377 -15c-187 0 -340 160 -340 350c0 191 151 348 341 348c192 0 346 -152 346 -348c0 -197 -157 -350 -347 -350zM378 623c-154 0 -281 -132 -281 -287c0 -162 129 -291 286 -291c155 0 281 134 281 291c0 159 -128 287 -286 287zM388 178v-16h-183v16h44v325h-45v17
h221c56 0 114 -25 114 -87c0 -59 -77 -77 -125 -81v-2c79 -13 110 -42 110 -94c0 -44 3 -64 11 -72c4 -4 15 -8 43 -1l3 -12c-18 -9 -45 -16 -65 -16c-68 0 -91 29 -93 111c0 64 -12 78 -58 78h-24v-166h47zM341 503v-142h23c58 0 73 9 73 47v52c0 25 9 43 -56 43h-40z" />
    <glyph glyph-name="minus" unicode="&#x2212;" 
d="M472 182h-443v81h443v-81z" />
    <glyph glyph-name="eth" unicode="&#xf0;" horiz-adv-x="556" 
d="M38 190c0 131 120 212 240 212c37 0 57 -6 78 -20c-9 61 -42 126 -73 168l-96 -53l-29 35l94 52c-30 24 -82 48 -105 53l12 31c55 -8 107 -24 163 -51l92 51l27 -33l-80 -44c97 -81 157 -193 157 -353c0 -122 -72 -253 -240 -253c-143 0 -240 95 -240 205zM200 298v-213
c0 -58 30 -74 78 -74s78 16 78 74v213c0 61 -23 78 -78 78c-49 0 -78 -17 -78 -78z" />
    <glyph glyph-name="multiply" unicode="&#xd7;" 
d="M29 58l164 165l-164 165l57 57l164 -165l164 165l57 -57l-164 -165l164 -165l-57 -57l-164 165l-164 -165z" />
    <glyph glyph-name="threesuperior" unicode="&#xb3;" horiz-adv-x="366" 
d="M193 481v-2c68 -11 150 -25 150 -106c0 -79 -102 -116 -196 -116c-76 0 -123 41 -123 75c0 27 14 50 47 50c27 0 51 -15 51 -42c0 -18 -9 -27 -17 -33c-9 -6 -18 -9 -18 -15c0 -13 54 -18 63 -18c53 0 81 34 81 88c0 74 -28 104 -100 104c-14 0 -26 -1 -38 -1
c-10 0 -9 16 -1 18c13 1 26 1 39 3c66 6 84 31 84 90c0 54 -14 72 -61 72c-10 0 -46 0 -46 -15c0 -5 8 -7 16 -12c7 -6 15 -14 15 -32c0 -25 -19 -41 -46 -41c-24 0 -43 19 -43 41c0 46 49 76 124 76c59 0 144 -23 144 -90c0 -61 -72 -83 -125 -94z" />
    <glyph glyph-name="copyright" unicode="&#xa9;" horiz-adv-x="760" 
d="M377 -15c-187 0 -340 160 -340 350c0 191 151 348 341 348c192 0 346 -152 346 -348c0 -197 -157 -350 -347 -350zM378 623c-154 0 -281 -132 -281 -287c0 -162 129 -291 286 -291c155 0 281 134 281 291c0 159 -128 287 -286 287zM472 494l19 18h19v-95h-17
c-20 47 -47 88 -111 88c-54 0 -71 -16 -71 -160c0 -130 1 -166 72 -166c66 0 98 41 116 92h20v-101h-22l-20 18c-28 -15 -60 -26 -91 -26c-102 0 -186 79 -186 183c0 63 77 175 180 175c34 0 66 -9 92 -26z" />
    <glyph glyph-name="Aacute" unicode="&#xc1;" horiz-adv-x="667" 
d="M209 0h-207v30c24 0 68 -1 79 29l236 624h39l248 -653h60v-30h-317v30h77l-54 157h-205l-26 -72c-11 -30 -20 -59 -20 -68c0 -25 76 -17 90 -17v-30zM269 462l-91 -245h180zM452 858l-137 -88h-61l97 111c27 31 53 74 98 74c24 0 44 -20 44 -44c0 -27 -21 -40 -41 -53z
" />
    <glyph glyph-name="Acircumflex" unicode="&#xc2;" horiz-adv-x="667" 
d="M209 0h-207v30c24 0 68 -1 79 29l236 624h39l248 -653h60v-30h-317v30h77l-54 157h-205l-26 -72c-11 -30 -20 -59 -20 -68c0 -25 76 -17 90 -17v-30zM269 462l-91 -245h180zM287 940h93l123 -174l-2 -2h-56l-111 98l-115 -98h-51l-2 2z" />
    <glyph glyph-name="Adieresis" unicode="&#xc4;" horiz-adv-x="667" 
d="M209 0h-207v30c24 0 68 -1 79 29l236 624h39l248 -653h60v-30h-317v30h77l-54 157h-205l-26 -72c-11 -30 -20 -59 -20 -68c0 -25 76 -17 90 -17v-30zM269 462l-91 -245h180zM438 750c-34 0 -62 32 -62 65c0 34 28 65 62 65c35 0 65 -29 65 -65s-29 -65 -65 -65zM227 750
c-34 0 -62 32 -62 65c0 34 28 65 62 65c35 0 65 -29 65 -65s-29 -65 -65 -65z" />
    <glyph glyph-name="Agrave" unicode="&#xc0;" horiz-adv-x="667" 
d="M209 0h-207v30c24 0 68 -1 79 29l236 624h39l248 -653h60v-30h-317v30h77l-54 157h-205l-26 -72c-11 -30 -20 -59 -20 -68c0 -25 76 -17 90 -17v-30zM269 462l-91 -245h180zM353 770l-137 88c-20 13 -41 26 -41 53c0 24 20 44 44 44c45 0 71 -43 98 -74l97 -111h-61z" />
    <glyph glyph-name="Aring" unicode="&#xc5;" horiz-adv-x="667" 
d="M209 0h-207v30c24 0 68 -1 79 29l236 624h39l248 -653h60v-30h-317v30h77l-54 157h-205l-26 -72c-11 -30 -20 -59 -20 -68c0 -25 76 -17 90 -17v-30zM269 462l-91 -245h180zM333 712c-59 0 -106 49 -106 107c0 57 48 106 106 106s107 -47 107 -106
c0 -60 -48 -107 -107 -107zM333 876c-31 0 -58 -26 -58 -57s27 -58 58 -58s59 28 59 58c0 31 -28 57 -59 57z" />
    <glyph glyph-name="Atilde" unicode="&#xc3;" horiz-adv-x="667" 
d="M209 0h-207v30c24 0 68 -1 79 29l236 624h39l248 -653h60v-30h-317v30h77l-54 157h-205l-26 -72c-11 -30 -20 -59 -20 -68c0 -25 76 -17 90 -17v-30zM269 462l-91 -245h180zM474 880h43c-15 -64 -46 -126 -121 -126c-31 0 -59 12 -85 24c-25 12 -49 24 -72 24
c-21 0 -41 -22 -45 -47h-42c9 63 47 125 118 125c28 0 57 -12 83 -24c27 -13 51 -25 69 -25c31 0 42 24 52 49z" />
    <glyph glyph-name="Ccedilla" unicode="&#xc7;" horiz-adv-x="667" 
d="M532 629l34 39h34v-186h-29c-38 93 -87 171 -198 171c-93 0 -125 -31 -125 -313c0 -253 1 -325 129 -325c114 0 171 81 203 183h34v-198h-36l-39 37c-47 -31 -101 -51 -156 -52l-22 -49c11 4 23 5 35 5c48 0 87 -21 87 -74c0 -70 -86 -85 -139 -85c-25 0 -65 9 -88 18
l16 37c25 -11 45 -13 72 -13c23 0 45 16 45 40c0 25 -21 36 -43 36c-10 0 -21 -1 -31 -4l-10 8l37 84c-159 19 -289 166 -289 352c0 125 135 343 317 343c60 0 114 -16 162 -54z" />
    <glyph glyph-name="Eacute" unicode="&#xc9;" horiz-adv-x="667" 
d="M621 0h-581v30h80v608h-71v30h547l6 -180h-34c-42 113 -86 150 -186 150h-94v-279c98 0 119 29 139 121h33v-284h-33c-14 96 -41 128 -139 128v-294h98c155 0 183 73 210 189h31zM452 858l-137 -88h-61l97 111c27 31 53 74 98 74c24 0 44 -20 44 -44
c0 -27 -21 -40 -41 -53z" />
    <glyph glyph-name="Ecircumflex" unicode="&#xca;" horiz-adv-x="667" 
d="M621 0h-581v30h80v608h-71v30h547l6 -180h-34c-42 113 -86 150 -186 150h-94v-279c98 0 119 29 139 121h33v-284h-33c-14 96 -41 128 -139 128v-294h98c155 0 183 73 210 189h31zM287 940h93l123 -174l-2 -2h-56l-111 98l-115 -98h-51l-2 2z" />
    <glyph glyph-name="Edieresis" unicode="&#xcb;" horiz-adv-x="667" 
d="M621 0h-581v30h80v608h-71v30h547l6 -180h-34c-42 113 -86 150 -186 150h-94v-279c98 0 119 29 139 121h33v-284h-33c-14 96 -41 128 -139 128v-294h98c155 0 183 73 210 189h31zM438 750c-34 0 -62 32 -62 65c0 34 28 65 62 65c35 0 65 -29 65 -65s-29 -65 -65 -65z
M227 750c-34 0 -62 32 -62 65c0 34 28 65 62 65c35 0 65 -29 65 -65s-29 -65 -65 -65z" />
    <glyph glyph-name="Egrave" unicode="&#xc8;" horiz-adv-x="667" 
d="M621 0h-581v30h80v608h-71v30h547l6 -180h-34c-42 113 -86 150 -186 150h-94v-279c98 0 119 29 139 121h33v-284h-33c-14 96 -41 128 -139 128v-294h98c155 0 183 73 210 189h31zM353 770l-137 88c-20 13 -41 26 -41 53c0 24 20 44 44 44c45 0 71 -43 98 -74l97 -111h-61
z" />
    <glyph glyph-name="Iacute" unicode="&#xcd;" horiz-adv-x="389" 
d="M358 0h-326v30h74v608h-74v30h326v-30h-84v-608h84v-30zM313 858l-137 -88h-61l97 111c27 31 53 74 98 74c24 0 44 -20 44 -44c0 -27 -21 -40 -41 -53z" />
    <glyph glyph-name="Icircumflex" unicode="&#xce;" horiz-adv-x="389" 
d="M358 0h-326v30h74v608h-74v30h326v-30h-84v-608h84v-30zM148 940h93l123 -174l-2 -2h-56l-111 98l-115 -98h-51l-2 2z" />
    <glyph glyph-name="Idieresis" unicode="&#xcf;" horiz-adv-x="389" 
d="M358 0h-326v30h74v608h-74v30h326v-30h-84v-608h84v-30zM299 750c-34 0 -62 32 -62 65c0 34 28 65 62 65c35 0 65 -29 65 -65s-29 -65 -65 -65zM88 750c-34 0 -62 32 -62 65c0 34 28 65 62 65c35 0 65 -29 65 -65s-29 -65 -65 -65z" />
    <glyph glyph-name="Igrave" unicode="&#xcc;" horiz-adv-x="389" 
d="M358 0h-326v30h74v608h-74v30h326v-30h-84v-608h84v-30zM214 770l-137 88c-20 13 -41 26 -41 53c0 24 20 44 44 44c45 0 71 -43 98 -74l97 -111h-61z" />
    <glyph glyph-name="Ntilde" unicode="&#xd1;" horiz-adv-x="722" 
d="M605 609v-624h-23l-428 595v-513c0 -25 14 -35 39 -37h57v-30h-220v30h48c34 2 36 23 36 52v494c0 49 9 62 -51 62h-33v30h264l281 -396v337c0 20 -41 29 -66 29h-28v30h211v-30h-42c-29 0 -45 -9 -45 -29zM502 880h43c-15 -64 -46 -126 -121 -126c-31 0 -59 12 -85 24
c-25 12 -49 24 -72 24c-21 0 -41 -22 -45 -47h-42c9 63 47 125 118 125c28 0 57 -12 83 -24c27 -13 51 -25 69 -25c31 0 42 24 52 49z" />
    <glyph glyph-name="Oacute" unicode="&#xd3;" horiz-adv-x="778" 
d="M245 431v-168c0 -208 7 -248 144 -248s145 40 145 248v168c0 182 -35 222 -145 222s-144 -40 -144 -222zM389 683c131 0 343 -115 343 -342c0 -197 -147 -356 -343 -356c-195 0 -342 159 -342 356c0 227 212 342 342 342zM508 858l-137 -88h-61l97 111c27 31 53 74 98 74
c24 0 44 -20 44 -44c0 -27 -21 -40 -41 -53z" />
    <glyph glyph-name="Ocircumflex" unicode="&#xd4;" horiz-adv-x="778" 
d="M245 431v-168c0 -208 7 -248 144 -248s145 40 145 248v168c0 182 -35 222 -145 222s-144 -40 -144 -222zM389 683c131 0 343 -115 343 -342c0 -197 -147 -356 -343 -356c-195 0 -342 159 -342 356c0 227 212 342 342 342zM343 940h93l123 -174l-2 -2h-56l-111 98
l-115 -98h-51l-2 2z" />
    <glyph glyph-name="Odieresis" unicode="&#xd6;" horiz-adv-x="778" 
d="M245 431v-168c0 -208 7 -248 144 -248s145 40 145 248v168c0 182 -35 222 -145 222s-144 -40 -144 -222zM389 683c131 0 343 -115 343 -342c0 -197 -147 -356 -343 -356c-195 0 -342 159 -342 356c0 227 212 342 342 342zM494 750c-34 0 -62 32 -62 65c0 34 28 65 62 65
c35 0 65 -29 65 -65s-29 -65 -65 -65zM283 750c-34 0 -62 32 -62 65c0 34 28 65 62 65c35 0 65 -29 65 -65s-29 -65 -65 -65z" />
    <glyph glyph-name="Ograve" unicode="&#xd2;" horiz-adv-x="778" 
d="M245 431v-168c0 -208 7 -248 144 -248s145 40 145 248v168c0 182 -35 222 -145 222s-144 -40 -144 -222zM389 683c131 0 343 -115 343 -342c0 -197 -147 -356 -343 -356c-195 0 -342 159 -342 356c0 227 212 342 342 342zM409 770l-137 88c-20 13 -41 26 -41 53
c0 24 20 44 44 44c45 0 71 -43 98 -74l97 -111h-61z" />
    <glyph glyph-name="Otilde" unicode="&#xd5;" horiz-adv-x="778" 
d="M245 431v-168c0 -208 7 -248 144 -248s145 40 145 248v168c0 182 -35 222 -145 222s-144 -40 -144 -222zM389 683c131 0 343 -115 343 -342c0 -197 -147 -356 -343 -356c-195 0 -342 159 -342 356c0 227 212 342 342 342zM530 880h43c-15 -64 -46 -126 -121 -126
c-31 0 -59 12 -85 24c-25 12 -49 24 -72 24c-21 0 -41 -22 -45 -47h-42c9 63 47 125 118 125c28 0 57 -12 83 -24c27 -13 51 -25 69 -25c31 0 42 24 52 49z" />
    <glyph glyph-name="Scaron" unicode="&#x160;" horiz-adv-x="556" 
d="M396 639l37 29h31v-177h-32c-15 82 -86 162 -173 162c-55 0 -132 -32 -132 -98c0 -59 42 -75 91 -86c51 -11 135 -31 181 -51c60 -26 109 -79 109 -195c0 -117 -71 -238 -234 -238c-52 0 -96 15 -138 47l-51 -38h-36v194h36c27 -92 93 -173 194 -173
c111 0 159 71 159 134c0 86 -97 93 -193 118c-97 25 -194 65 -194 216c0 114 96 200 210 200c48 0 94 -19 135 -44zM324 764h-93l-121 174l2 2h53l113 -99l111 99h56l2 -2z" />
    <glyph glyph-name="Uacute" unicode="&#xda;" horiz-adv-x="722" 
d="M26 638v30h331v-30h-84v-484c0 -92 23 -138 136 -139c79 -1 123 37 144 66c23 25 23 102 23 184v336c0 20 -16 37 -45 37h-45v30h211v-30h-60c-23 0 -31 -17 -31 -37v-411c0 -51 -4 -103 -39 -141c-37 -41 -95 -64 -209 -64c-164 0 -253 57 -253 219v434h-79zM480 858
l-137 -88h-61l97 111c27 31 53 74 98 74c24 0 44 -20 44 -44c0 -27 -21 -40 -41 -53z" />
    <glyph glyph-name="Ucircumflex" unicode="&#xdb;" horiz-adv-x="722" 
d="M26 638v30h331v-30h-84v-484c0 -92 23 -138 136 -139c79 -1 123 37 144 66c23 25 23 102 23 184v336c0 20 -16 37 -45 37h-45v30h211v-30h-60c-23 0 -31 -17 -31 -37v-411c0 -51 -4 -103 -39 -141c-37 -41 -95 -64 -209 -64c-164 0 -253 57 -253 219v434h-79zM315 940h93
l123 -174l-2 -2h-56l-111 98l-115 -98h-51l-2 2z" />
    <glyph glyph-name="Udieresis" unicode="&#xdc;" horiz-adv-x="722" 
d="M26 638v30h331v-30h-84v-484c0 -92 23 -138 136 -139c79 -1 123 37 144 66c23 25 23 102 23 184v336c0 20 -16 37 -45 37h-45v30h211v-30h-60c-23 0 -31 -17 -31 -37v-411c0 -51 -4 -103 -39 -141c-37 -41 -95 -64 -209 -64c-164 0 -253 57 -253 219v434h-79zM466 750
c-34 0 -62 32 -62 65c0 34 28 65 62 65c35 0 65 -29 65 -65s-29 -65 -65 -65zM255 750c-34 0 -62 32 -62 65c0 34 28 65 62 65c35 0 65 -29 65 -65s-29 -65 -65 -65z" />
    <glyph glyph-name="Ugrave" unicode="&#xd9;" horiz-adv-x="722" 
d="M26 638v30h331v-30h-84v-484c0 -92 23 -138 136 -139c79 -1 123 37 144 66c23 25 23 102 23 184v336c0 20 -16 37 -45 37h-45v30h211v-30h-60c-23 0 -31 -17 -31 -37v-411c0 -51 -4 -103 -39 -141c-37 -41 -95 -64 -209 -64c-164 0 -253 57 -253 219v434h-79zM381 770
l-137 88c-20 13 -41 26 -41 53c0 24 20 44 44 44c45 0 71 -43 98 -74l97 -111h-61z" />
    <glyph glyph-name="Yacute" unicode="&#xdd;" horiz-adv-x="667" 
d="M6 638v30h319v-30h-75l160 -271l127 245c8 15 -7 26 -28 26h-59v30h211v-30h-37c-28 0 -39 -5 -65 -55l-132 -257v-296h88v-30h-340v30h84v271l-192 337h-61zM482 858l-137 -88h-61l97 111c27 31 53 74 98 74c24 0 44 -20 44 -44c0 -27 -21 -40 -41 -53z" />
    <glyph glyph-name="Ydieresis" unicode="&#x178;" horiz-adv-x="667" 
d="M6 638v30h319v-30h-75l160 -271l127 245c8 15 -7 26 -28 26h-59v30h211v-30h-37c-28 0 -39 -5 -65 -55l-132 -257v-296h88v-30h-340v30h84v271l-192 337h-61zM438 750c-34 0 -62 32 -62 65c0 34 28 65 62 65c35 0 65 -29 65 -65s-29 -65 -65 -65zM227 750
c-34 0 -62 32 -62 65c0 34 28 65 62 65c35 0 65 -29 65 -65s-29 -65 -65 -65z" />
    <glyph glyph-name="Zcaron" unicode="&#x17d;" horiz-adv-x="556" 
d="M508 226h29v-226h-519v39l336 599h-90c-75 0 -155 -27 -182 -153h-29l9 183h477v-30l-338 -608h142c102 0 143 112 165 196zM324 764h-93l-121 174l2 2h53l113 -99l111 99h56l2 -2z" />
    <glyph glyph-name="aacute" unicode="&#xe1;" 
d="M299 100v102c-54 -3 -127 -10 -127 -81c0 -34 18 -79 58 -79c46 0 69 31 69 58zM299 226v67c0 52 4 83 -70 83c-11 0 -53 -6 -53 -24c0 -5 5 -13 10 -21s10 -17 10 -25c0 -42 -21 -70 -64 -70c-35 0 -64 23 -64 60c0 79 108 106 170 106c129 0 184 -37 184 -66v-243
c0 -21 1 -46 29 -46c7 0 21 7 25 14l18 -19c-27 -42 -56 -57 -104 -57c-43 0 -79 37 -89 69c-35 -41 -86 -69 -140 -69s-117 31 -117 93c0 117 166 146 255 148zM369 586l-137 -88h-61l97 111c27 31 53 74 98 74c24 0 44 -20 44 -44c0 -27 -21 -40 -41 -53z" />
    <glyph glyph-name="acircumflex" unicode="&#xe2;" 
d="M299 100v102c-54 -3 -127 -10 -127 -81c0 -34 18 -79 58 -79c46 0 69 31 69 58zM299 226v67c0 52 4 83 -70 83c-11 0 -53 -6 -53 -24c0 -5 5 -13 10 -21s10 -17 10 -25c0 -42 -21 -70 -64 -70c-35 0 -64 23 -64 60c0 79 108 106 170 106c129 0 184 -37 184 -66v-243
c0 -21 1 -46 29 -46c7 0 21 7 25 14l18 -19c-27 -42 -56 -57 -104 -57c-43 0 -79 37 -89 69c-35 -41 -86 -69 -140 -69s-117 31 -117 93c0 117 166 146 255 148zM204 668h93l123 -174l-2 -2h-56l-111 98l-115 -98h-51l-2 2z" />
    <glyph glyph-name="adieresis" unicode="&#xe4;" 
d="M299 100v102c-54 -3 -127 -10 -127 -81c0 -34 18 -79 58 -79c46 0 69 31 69 58zM299 226v67c0 52 4 83 -70 83c-11 0 -53 -6 -53 -24c0 -5 5 -13 10 -21s10 -17 10 -25c0 -42 -21 -70 -64 -70c-35 0 -64 23 -64 60c0 79 108 106 170 106c129 0 184 -37 184 -66v-243
c0 -21 1 -46 29 -46c7 0 21 7 25 14l18 -19c-27 -42 -56 -57 -104 -57c-43 0 -79 37 -89 69c-35 -41 -86 -69 -140 -69s-117 31 -117 93c0 117 166 146 255 148zM355 498c-34 0 -62 32 -62 65c0 34 28 65 62 65c35 0 65 -29 65 -65s-29 -65 -65 -65zM144 498
c-34 0 -62 32 -62 65c0 34 28 65 62 65c35 0 65 -29 65 -65s-29 -65 -65 -65z" />
    <glyph glyph-name="agrave" unicode="&#xe0;" 
d="M299 100v102c-54 -3 -127 -10 -127 -81c0 -34 18 -79 58 -79c46 0 69 31 69 58zM299 226v67c0 52 4 83 -70 83c-11 0 -53 -6 -53 -24c0 -5 5 -13 10 -21s10 -17 10 -25c0 -42 -21 -70 -64 -70c-35 0 -64 23 -64 60c0 79 108 106 170 106c129 0 184 -37 184 -66v-243
c0 -21 1 -46 29 -46c7 0 21 7 25 14l18 -19c-27 -42 -56 -57 -104 -57c-43 0 -79 37 -89 69c-35 -41 -86 -69 -140 -69s-117 31 -117 93c0 117 166 146 255 148zM270 498l-137 88c-20 13 -41 26 -41 53c0 24 20 44 44 44c45 0 71 -43 98 -74l97 -111h-61z" />
    <glyph glyph-name="aring" unicode="&#xe5;" 
d="M299 100v102c-54 -3 -127 -10 -127 -81c0 -34 18 -79 58 -79c46 0 69 31 69 58zM299 226v67c0 52 4 83 -70 83c-11 0 -53 -6 -53 -24c0 -5 5 -13 10 -21s10 -17 10 -25c0 -42 -21 -70 -64 -70c-35 0 -64 23 -64 60c0 79 108 106 170 106c129 0 184 -37 184 -66v-243
c0 -21 1 -46 29 -46c7 0 21 7 25 14l18 -19c-27 -42 -56 -57 -104 -57c-43 0 -79 37 -89 69c-35 -41 -86 -69 -140 -69s-117 31 -117 93c0 117 166 146 255 148zM250 470c-59 0 -106 49 -106 107c0 57 48 106 106 106s107 -47 107 -106c0 -60 -48 -107 -107 -107zM250 634
c-31 0 -58 -26 -58 -57s27 -58 58 -58s59 28 59 58c0 31 -28 57 -59 57z" />
    <glyph glyph-name="atilde" unicode="&#xe3;" 
d="M299 100v102c-54 -3 -127 -10 -127 -81c0 -34 18 -79 58 -79c46 0 69 31 69 58zM299 226v67c0 52 4 83 -70 83c-11 0 -53 -6 -53 -24c0 -5 5 -13 10 -21s10 -17 10 -25c0 -42 -21 -70 -64 -70c-35 0 -64 23 -64 60c0 79 108 106 170 106c129 0 184 -37 184 -66v-243
c0 -21 1 -46 29 -46c7 0 21 7 25 14l18 -19c-27 -42 -56 -57 -104 -57c-43 0 -79 37 -89 69c-35 -41 -86 -69 -140 -69s-117 31 -117 93c0 117 166 146 255 148zM391 628h43c-15 -64 -46 -126 -121 -126c-31 0 -59 12 -85 24c-25 12 -49 24 -72 24c-21 0 -41 -22 -45 -47
h-42c9 63 47 125 118 125c28 0 57 -12 83 -24c27 -13 51 -25 69 -25c31 0 42 24 52 49z" />
    <glyph glyph-name="ccedilla" unicode="&#xe7;" 
d="M429 126l22 -12c-26 -74 -88 -125 -166 -128l-22 -50c11 4 23 5 35 5c48 0 87 -21 87 -74c0 -70 -86 -85 -139 -85c-25 0 -65 9 -88 18l16 37c25 -11 45 -13 72 -13c23 0 45 16 45 40c0 25 -21 36 -43 36c-10 0 -21 -1 -31 -4l-10 8l37 84c-99 13 -194 94 -194 201
c0 123 110 213 228 213c110 0 158 -70 158 -109c0 -42 -30 -69 -70 -69c-38 0 -66 31 -66 69c0 14 9 33 17 39c6 4 13 12 13 22c0 20 -37 22 -53 22c-44 0 -74 -12 -74 -107v-129c0 -103 13 -129 77 -129c78 0 119 45 149 115z" />
    <glyph glyph-name="eacute" unicode="&#xe9;" 
d="M416 210h-219v-129c0 -52 29 -70 81 -70c79 0 141 39 164 117l23 -8c-26 -93 -101 -135 -194 -135c-124 0 -236 70 -236 206s120 211 234 211c99 0 194 -69 194 -173c0 -24 -31 -19 -47 -19zM197 236h131v98c0 26 -22 42 -70 42c-43 0 -61 -19 -61 -46v-94zM369 586
l-137 -88h-61l97 111c27 31 53 74 98 74c24 0 44 -20 44 -44c0 -27 -21 -40 -41 -53z" />
    <glyph glyph-name="ecircumflex" unicode="&#xea;" 
d="M416 210h-219v-129c0 -52 29 -70 81 -70c79 0 141 39 164 117l23 -8c-26 -93 -101 -135 -194 -135c-124 0 -236 70 -236 206s120 211 234 211c99 0 194 -69 194 -173c0 -24 -31 -19 -47 -19zM197 236h131v98c0 26 -22 42 -70 42c-43 0 -61 -19 -61 -46v-94zM204 668h93
l123 -174l-2 -2h-56l-111 98l-115 -98h-51l-2 2z" />
    <glyph glyph-name="edieresis" unicode="&#xeb;" 
d="M416 210h-219v-129c0 -52 29 -70 81 -70c79 0 141 39 164 117l23 -8c-26 -93 -101 -135 -194 -135c-124 0 -236 70 -236 206s120 211 234 211c99 0 194 -69 194 -173c0 -24 -31 -19 -47 -19zM197 236h131v98c0 26 -22 42 -70 42c-43 0 -61 -19 -61 -46v-94zM355 498
c-34 0 -62 32 -62 65c0 34 28 65 62 65c35 0 65 -29 65 -65s-29 -65 -65 -65zM144 498c-34 0 -62 32 -62 65c0 34 28 65 62 65c35 0 65 -29 65 -65s-29 -65 -65 -65z" />
    <glyph glyph-name="egrave" unicode="&#xe8;" 
d="M416 210h-219v-129c0 -52 29 -70 81 -70c79 0 141 39 164 117l23 -8c-26 -93 -101 -135 -194 -135c-124 0 -236 70 -236 206s120 211 234 211c99 0 194 -69 194 -173c0 -24 -31 -19 -47 -19zM197 236h131v98c0 26 -22 42 -70 42c-43 0 -61 -19 -61 -46v-94zM270 498
l-137 88c-20 13 -41 26 -41 53c0 24 20 44 44 44c45 0 71 -43 98 -74l97 -111h-61z" />
    <glyph glyph-name="iacute" unicode="&#xed;" horiz-adv-x="278" 
d="M74 28v340h-69v28h69c23 0 46 1 69 2s46 2 69 2v-372h61v-28h-264v28h65zM258 586l-137 -88h-61l97 111c27 31 53 74 98 74c24 0 44 -20 44 -44c0 -27 -21 -40 -41 -53z" />
    <glyph glyph-name="icircumflex" unicode="&#xee;" horiz-adv-x="278" 
d="M74 28v340h-69v28h69c23 0 46 1 69 2s46 2 69 2v-372h61v-28h-264v28h65zM93 668h93l123 -174l-2 -2h-56l-111 98l-115 -98h-51l-2 2z" />
    <glyph glyph-name="idieresis" unicode="&#xef;" horiz-adv-x="278" 
d="M74 28v340h-69v28h69c23 0 46 1 69 2s46 2 69 2v-372h61v-28h-264v28h65zM244 498c-34 0 -62 32 -62 65c0 34 28 65 62 65c35 0 65 -29 65 -65s-29 -65 -65 -65zM33 498c-34 0 -62 32 -62 65c0 34 28 65 62 65c35 0 65 -29 65 -65s-29 -65 -65 -65z" />
    <glyph glyph-name="igrave" unicode="&#xec;" horiz-adv-x="278" 
d="M74 28v340h-69v28h69c23 0 46 1 69 2s46 2 69 2v-372h61v-28h-264v28h65zM159 498l-137 88c-20 13 -41 26 -41 53c0 24 20 44 44 44c45 0 71 -43 98 -74l97 -111h-61z" />
    <glyph glyph-name="ntilde" unicode="&#xf1;" horiz-adv-x="556" 
d="M211 400v-92c43 74 96 94 164 94c61 0 113 -18 113 -96v-278h62v-28h-250v28h54v255c0 64 -15 78 -43 78c-64 0 -100 -82 -100 -137v-196h53v-28h-251v28h64v340h-64v28h64c45 0 89 4 134 4zM419 628h43c-15 -64 -46 -126 -121 -126c-31 0 -59 12 -85 24
c-25 12 -49 24 -72 24c-21 0 -41 -22 -45 -47h-42c9 63 47 125 118 125c28 0 57 -12 83 -24c27 -13 51 -25 69 -25c31 0 42 24 52 49z" />
    <glyph glyph-name="oacute" unicode="&#xf3;" horiz-adv-x="556" 
d="M356 85v213c0 61 -11 78 -78 78c-61 0 -78 -17 -78 -78v-213c0 -58 30 -74 78 -74s78 16 78 74zM278 402c120 0 240 -81 240 -212c0 -129 -111 -205 -240 -205c-143 0 -240 95 -240 205c0 131 120 212 240 212zM397 586l-137 -88h-61l97 111c27 31 53 74 98 74
c24 0 44 -20 44 -44c0 -27 -21 -40 -41 -53z" />
    <glyph glyph-name="ocircumflex" unicode="&#xf4;" horiz-adv-x="556" 
d="M356 85v213c0 61 -11 78 -78 78c-61 0 -78 -17 -78 -78v-213c0 -58 30 -74 78 -74s78 16 78 74zM278 402c120 0 240 -81 240 -212c0 -129 -111 -205 -240 -205c-143 0 -240 95 -240 205c0 131 120 212 240 212zM232 668h93l123 -174l-2 -2h-56l-111 98l-115 -98h-51l-2 2
z" />
    <glyph glyph-name="odieresis" unicode="&#xf6;" horiz-adv-x="556" 
d="M356 85v213c0 61 -11 78 -78 78c-61 0 -78 -17 -78 -78v-213c0 -58 30 -74 78 -74s78 16 78 74zM278 402c120 0 240 -81 240 -212c0 -129 -111 -205 -240 -205c-143 0 -240 95 -240 205c0 131 120 212 240 212zM383 498c-34 0 -62 32 -62 65c0 34 28 65 62 65
c35 0 65 -29 65 -65s-29 -65 -65 -65zM172 498c-34 0 -62 32 -62 65c0 34 28 65 62 65c35 0 65 -29 65 -65s-29 -65 -65 -65z" />
    <glyph glyph-name="ograve" unicode="&#xf2;" horiz-adv-x="556" 
d="M356 85v213c0 61 -11 78 -78 78c-61 0 -78 -17 -78 -78v-213c0 -58 30 -74 78 -74s78 16 78 74zM278 402c120 0 240 -81 240 -212c0 -129 -111 -205 -240 -205c-143 0 -240 95 -240 205c0 131 120 212 240 212zM298 498l-137 88c-20 13 -41 26 -41 53c0 24 20 44 44 44
c45 0 71 -43 98 -74l97 -111h-61z" />
    <glyph glyph-name="otilde" unicode="&#xf5;" horiz-adv-x="556" 
d="M356 85v213c0 61 -11 78 -78 78c-61 0 -78 -17 -78 -78v-213c0 -58 30 -74 78 -74s78 16 78 74zM278 402c120 0 240 -81 240 -212c0 -129 -111 -205 -240 -205c-143 0 -240 95 -240 205c0 131 120 212 240 212zM419 628h43c-15 -64 -46 -126 -121 -126
c-31 0 -59 12 -85 24c-25 12 -49 24 -72 24c-21 0 -41 -22 -45 -47h-42c9 63 47 125 118 125c28 0 57 -12 83 -24c27 -13 51 -25 69 -25c31 0 42 24 52 49z" />
    <glyph glyph-name="scaron" unicode="&#x161;" horiz-adv-x="389" 
d="M90 21l-28 -21h-25v141h26c13 -71 73 -130 146 -130c35 0 94 23 94 68c0 51 -47 47 -86 51c-88 9 -184 26 -184 138c0 85 63 134 143 134c38 0 57 -11 92 -20c8 -2 22 11 29 20h20v-115h-28c-21 61 -47 89 -113 89c-31 0 -92 -11 -92 -54c0 -22 38 -39 82 -42
c112 -8 190 -35 190 -138c0 -80 -46 -157 -148 -157c-41 0 -84 14 -118 36zM240 492h-93l-121 174l2 2h53l113 -99l111 99h56l2 -2z" />
    <glyph glyph-name="uacute" unicode="&#xfa;" horiz-adv-x="556" 
d="M348 -10v86h-2c-24 -64 -86 -91 -153 -91c-123 0 -121 56 -121 155v228h-69v28h69c23 0 46 1 69 2s46 2 69 2v-279c0 -55 -5 -95 40 -95c56 0 98 78 98 109v233h-69v28h69c23 0 46 1 69 2s46 2 69 2v-372h67v-28h-67c-23 0 -46 -2 -69 -5c-23 -2 -46 -5 -69 -5zM397 586
l-137 -88h-61l97 111c27 31 53 74 98 74c24 0 44 -20 44 -44c0 -27 -21 -40 -41 -53z" />
    <glyph glyph-name="ucircumflex" unicode="&#xfb;" horiz-adv-x="556" 
d="M348 -10v86h-2c-24 -64 -86 -91 -153 -91c-123 0 -121 56 -121 155v228h-69v28h69c23 0 46 1 69 2s46 2 69 2v-279c0 -55 -5 -95 40 -95c56 0 98 78 98 109v233h-69v28h69c23 0 46 1 69 2s46 2 69 2v-372h67v-28h-67c-23 0 -46 -2 -69 -5c-23 -2 -46 -5 -69 -5zM232 668
h93l123 -174l-2 -2h-56l-111 98l-115 -98h-51l-2 2z" />
    <glyph glyph-name="udieresis" unicode="&#xfc;" horiz-adv-x="556" 
d="M348 -10v86h-2c-24 -64 -86 -91 -153 -91c-123 0 -121 56 -121 155v228h-69v28h69c23 0 46 1 69 2s46 2 69 2v-279c0 -55 -5 -95 40 -95c56 0 98 78 98 109v233h-69v28h69c23 0 46 1 69 2s46 2 69 2v-372h67v-28h-67c-23 0 -46 -2 -69 -5c-23 -2 -46 -5 -69 -5zM383 498
c-34 0 -62 32 -62 65c0 34 28 65 62 65c35 0 65 -29 65 -65s-29 -65 -65 -65zM172 498c-34 0 -62 32 -62 65c0 34 28 65 62 65c35 0 65 -29 65 -65s-29 -65 -65 -65z" />
    <glyph glyph-name="ugrave" unicode="&#xf9;" horiz-adv-x="556" 
d="M348 -10v86h-2c-24 -64 -86 -91 -153 -91c-123 0 -121 56 -121 155v228h-69v28h69c23 0 46 1 69 2s46 2 69 2v-279c0 -55 -5 -95 40 -95c56 0 98 78 98 109v233h-69v28h69c23 0 46 1 69 2s46 2 69 2v-372h67v-28h-67c-23 0 -46 -2 -69 -5c-23 -2 -46 -5 -69 -5zM298 498
l-137 88c-20 13 -41 26 -41 53c0 24 20 44 44 44c45 0 71 -43 98 -74l97 -111h-61z" />
    <glyph glyph-name="yacute" unicode="&#xfd;" 
d="M17 368v28h241v-28h-47l97 -216h4l76 186c9 22 -10 30 -25 30h-37v28h158v-28h-31c-21 0 -30 -31 -38 -49l-198 -460c-21 -48 -54 -79 -98 -79c-33 0 -64 30 -64 62c0 36 25 60 58 60c23 0 33 -10 41 -19s14 -17 24 -13c20 8 25 28 32 44l36 85l-185 369h-44zM369 586
l-137 -88h-61l97 111c27 31 53 74 98 74c24 0 44 -20 44 -44c0 -27 -21 -40 -41 -53z" />
    <glyph glyph-name="ydieresis" unicode="&#xff;" 
d="M17 368v28h241v-28h-47l97 -216h4l76 186c9 22 -10 30 -25 30h-37v28h158v-28h-31c-21 0 -30 -31 -38 -49l-198 -460c-21 -48 -54 -79 -98 -79c-33 0 -64 30 -64 62c0 36 25 60 58 60c23 0 33 -10 41 -19s14 -17 24 -13c20 8 25 28 32 44l36 85l-185 369h-44zM385 518
c-34 0 -62 32 -62 65c0 34 28 65 62 65c35 0 65 -29 65 -65s-29 -65 -65 -65zM174 518c-34 0 -62 32 -62 65c0 34 28 65 62 65c35 0 65 -29 65 -65s-29 -65 -65 -65z" />
    <glyph glyph-name="zcaron" unicode="&#x17e;" horiz-adv-x="444" 
d="M407 0h-374v20l224 348h-59c-59 0 -91 -34 -122 -128h-26l5 156h356v-25l-218 -343h69c75 0 99 81 125 139h25zM268 492h-93l-121 174l2 2h53l113 -99l111 99h56l2 -2z" />
    <glyph glyph-name="Omega" unicode="&#x2126;" horiz-adv-x="799" 
d="M762 177l-31 -177h-285l-11 26c41 78 115 207 115 340c-1 183 -63 256 -154 256c-92 0 -148 -67 -148 -259c0 -126 65 -250 112 -337l-9 -26h-288l-27 177h38c23 -56 38 -68 87 -68h94c-76 49 -183 123 -183 262c0 180 137 294 328 294c193 0 325 -111 325 -288
c0 -124 -103 -204 -191 -268h109c44 0 58 11 80 68h39z" />
    <glyph glyph-name="pi" unicode="&#x3c0;" horiz-adv-x="637" 
d="M579 475l32 -9c-3 -44 -26 -114 -43 -132c-17 -5 -41 -7 -67 -7c-6 -61 -5 -104 -5 -173c1 -62 21 -81 43 -81c17 0 28 7 43 16l14 -31c-27 -39 -84 -70 -135 -70c-63 0 -117 28 -117 133c0 87 5 146 9 209c-61 1 -85 2 -121 2v-8c0 -220 -52 -300 -68 -319
c-30 -10 -55 -16 -77 -17l-10 24c73 96 99 235 99 322c-60 0 -88 -9 -134 -36l-19 34c38 52 74 113 195 112c84 -1 199 -3 296 -3c32 0 49 7 65 34z" />
    <glyph glyph-name="Euro" unicode="&#x20ac;" horiz-adv-x="611" 
d="M469 239h-205v-62c0 -111 46 -166 119 -166c113 0 143 65 172 155h30v-166h-34l-25 33c-7 -7 -44 -48 -143 -48c-144 0 -250 109 -283 254h-75l22 54h42c-1 10 -1 21 -1 31c0 13 1 25 2 38h-69l23 54h57c31 135 136 249 282 249c98 0 137 -43 142 -48l26 33h34v-166h-30
c-25 86 -55 155 -172 155c-73 0 -119 -55 -119 -166v-57h279l-23 -54h-256v-69h227z" />
    <glyph glyph-name="estimated" unicode="&#x212e;" horiz-adv-x="819" 
d="M786 315h-611c-3 0 -5 -1 -5 -4v-185c0 -8 3 -15 8 -21c60 -61 141 -100 231 -100c98 0 184 44 243 112h55c-68 -79 -177 -131 -299 -131c-208 0 -376 151 -376 338c0 188 168 339 376 339c209 0 378 -151 378 -339v-9zM647 339v186c0 8 -3 16 -9 22
c-59 58 -139 96 -229 96c-89 0 -170 -39 -230 -99c-6 -6 -9 -14 -9 -23v-182c0 -2 2 -6 5 -6h468c3 0 4 4 4 6z" />
    <glyph glyph-name="partialdiff" unicode="&#x2202;" horiz-adv-x="597" 
d="M283 416h1c47 0 98 -20 124 -56c5 29 11 74 12 107c2 48 0 96 -25 142c-20 35 -55 56 -98 56c-62 0 -122 -44 -161 -76c-21 -1 -65 68 -50 101c37 18 79 38 160 38c113 0 191 -55 243 -140c46 -74 59 -162 59 -221c0 -80 -15 -164 -56 -235c-47 -86 -125 -146 -242 -146
c-125 0 -208 78 -208 199c0 71 29 126 66 163c44 44 105 68 175 68zM323 362h-1c-27 0 -60 -9 -88 -53c-29 -50 -42 -120 -42 -187c0 -59 21 -95 65 -95c41 0 71 50 90 95c26 56 39 109 50 187c-12 24 -38 53 -74 53z" />
    <glyph glyph-name="product" unicode="&#x220f;" horiz-adv-x="775" 
d="M746 670v-37c-89 -7 -95 -17 -95 -98v-473c0 -85 8 -95 95 -102v-37h-330v37c74 6 78 13 78 102v525c0 32 -6 35 -39 35h-139c-32 0 -35 -3 -35 -34v-526c0 -87 2 -96 71 -102v-37h-323v37c85 7 94 18 94 102v473c0 82 -8 91 -98 98v37h721z" />
    <glyph glyph-name="summation" unicode="&#x2211;" horiz-adv-x="611" 
d="M587 145l-53 -231h-509v39l222 294l-215 384v39h501c1 -17 7 -112 13 -185l-38 -10c-13 43 -28 84 -43 110c-18 30 -33 41 -109 41h-138l159 -284l-227 -305h243c93 0 103 4 155 119z" />
    <glyph glyph-name="uni2219" unicode="&#x2219;" horiz-adv-x="333" 
d="M165 304c44 0 83 -37 83 -82c0 -46 -38 -82 -83 -82s-82 38 -82 82s38 82 82 82z" />
    <glyph glyph-name="radical" unicode="&#x221a;" horiz-adv-x="588" 
d="M582 828l-183 -981l-37 -15l-220 511l-90 -40l-15 45l205 92l144 -355h3l136 754z" />
    <glyph glyph-name="infinity" unicode="&#x221e;" horiz-adv-x="763" 
d="M719 271v-1c0 -113 -81 -177 -164 -177c-51 0 -110 16 -174 107c-49 -63 -100 -107 -177 -107c-84 0 -161 67 -161 171c0 105 74 175 170 175c73 0 125 -37 174 -102c35 39 83 103 173 102c86 -1 159 -65 159 -168zM213 175h2c50 0 88 44 121 86c-37 53 -66 97 -125 97
c-48 0 -83 -36 -83 -94c0 -48 37 -89 85 -89zM551 358h-1c-53 0 -92 -54 -122 -90c56 -74 85 -93 128 -93c50 0 77 50 77 89c0 53 -31 94 -82 94z" />
    <glyph glyph-name="integral" unicode="&#x222b;" horiz-adv-x="431" 
d="M167 -23l-22 375c-21 374 114 440 193 440c37 0 83 -22 83 -61c0 -45 -33 -67 -65 -67c-41 0 -40 72 -62 72c-17 0 -27 -24 -21 -138l20 -350c18 -330 -85 -458 -198 -458c-44 0 -83 29 -83 64c-1 41 43 71 77 71c36 0 34 -79 56 -79c23 0 27 50 22 131z" />
    <glyph glyph-name="approxequal" unicode="&#x2248;" horiz-adv-x="560" 
d="M469 445l58 -57c-41 -65 -95 -102 -147 -102c-43 0 -71 13 -112 38c-27 16 -51 31 -83 31c-44 0 -72 -33 -99 -68l-57 56c30 54 94 101 159 101c47 0 77 -16 104 -32c39 -24 56 -35 84 -35c37 0 64 27 93 68zM469 254l58 -57c-40 -64 -93 -102 -148 -102
c-42 0 -72 15 -111 37c-29 18 -52 32 -83 32c-45 0 -72 -33 -99 -68l-57 56c30 54 95 101 159 101c48 0 77 -17 103 -32c29 -17 51 -36 84 -36c39 0 63 26 94 69z" />
    <glyph glyph-name="notequal" unicode="&#x2260;" horiz-adv-x="560" 
d="M421 492l-35 -78h127v-88h-163l-54 -121h217v-89h-254l-49 -110l-71 31l36 79h-128v89h164l53 121h-217v88h254l48 108z" />
    <glyph glyph-name="lessequal" unicode="&#x2264;" horiz-adv-x="560" 
d="M512 111l-462 211v96l461 210v-99l-369 -158v-2l370 -159v-99zM514 -13h-466v91h466v-91z" />
    <glyph glyph-name="greaterequal" unicode="&#x2265;" horiz-adv-x="560" 
d="M51 628l462 -211v-96l-462 -210v99l370 159v2l-370 158v99zM510 -13h-462v91h462v-91z" />
    <glyph glyph-name="lozenge" unicode="&#x25ca;" horiz-adv-x="612" 
d="M567 317l-207 -389h-110l-207 389l210 391h107zM464 317l-156 304h-4l-157 -304l157 -306h3z" />
    <glyph glyph-name="uni02C9" unicode="&#x2c9;" horiz-adv-x="333" 
d="M332 596h-331v72h331v-72z" />
    <glyph glyph-name="uni00AD" unicode="&#xad;" horiz-adv-x="333" 
d="M309 150h-285v102h285v-102z" />
    <glyph glyph-name="uni03A9" unicode="&#x3a9;" horiz-adv-x="799" 
d="M762 177l-31 -177h-285l-11 26c41 78 115 207 115 340c-1 183 -63 256 -154 256c-92 0 -148 -67 -148 -259c0 -126 65 -250 112 -337l-9 -26h-288l-27 177h38c23 -56 38 -68 87 -68h94c-76 49 -183 123 -183 262c0 180 137 294 328 294c193 0 325 -111 325 -288
c0 -124 -103 -204 -191 -268h109c44 0 58 11 80 68h39z" />
    <glyph glyph-name="uni00A0" unicode="&#xa0;" horiz-adv-x="305" 
 />
    <glyph glyph-name="afii61289" unicode="&#x2113;" horiz-adv-x="491" 
d="M445 151l26 -26c-49 -87 -115 -139 -209 -139c-63 0 -100 15 -126 41c-25 27 -44 58 -44 152v44l-61 -35l-15 36l76 49v128c0 131 13 189 57 243c42 52 89 69 134 69c85 0 121 -68 121 -141c0 -109 -57 -182 -167 -271v-69c0 -113 24 -161 88 -161c51 0 91 41 120 80z
M237 457v-95c45 51 80 110 80 209c0 50 -9 101 -41 101c-36 0 -39 -50 -39 -215z" />
    <glyph glyph-name="uni03BC" unicode="&#x3bc;" horiz-adv-x="556" 
d="M348 -10v86h-2c-24 -64 -86 -91 -153 -91c-14 0 -11 -29 -4 -52s18 -52 21 -83c3 -36 -28 -70 -69 -70c-39 0 -71 28 -69 70c3 57 40 126 14 175c-14 27 -14 66 -14 115v228h-69v28h69c23 0 46 1 69 2s46 2 69 2v-279c0 -55 -5 -95 40 -95c56 0 98 78 98 109v233h-69v28
h69c23 0 46 1 69 2s46 2 69 2v-372h67v-28h-67c-23 0 -46 -2 -69 -5c-23 -2 -46 -5 -69 -5z" />
    <glyph glyph-name="uni2215" unicode="&#x2215;" horiz-adv-x="167" 
d="M333 665l-449 -665h-52l449 665h52z" />
    <glyph glyph-name="a.superior" horiz-adv-x="300" 
d="M170 502v61c-35 -2 -83 -6 -83 -48c0 -21 12 -48 38 -48c30 0 45 19 45 35zM170 578v40c0 31 2 50 -46 50c-7 0 -34 -4 -34 -15c0 -3 3 -8 6 -12c4 -5 7 -11 7 -15c0 -26 -14 -42 -42 -42c-23 0 -41 13 -41 36c0 47 70 63 110 63c84 0 120 -22 120 -39v-146
c0 -13 0 -28 19 -28c4 0 13 4 16 9l11 -12c-17 -25 -36 -34 -67 -34c-28 0 -51 22 -58 41c-23 -24 -56 -41 -91 -41s-76 19 -76 56c0 70 108 87 166 89z" />
    <glyph glyph-name="o.superior" horiz-adv-x="334" 
d="M218 493v128c0 36 -7 47 -49 47s-53 -11 -53 -47v-128c0 -35 20 -44 51 -44s51 9 51 44zM167 683c78 0 156 -48 156 -127c0 -77 -72 -123 -156 -123c-93 0 -156 57 -156 123c0 79 78 127 156 127z" />
    <glyph glyph-name="one.superior" horiz-adv-x="366" 
d="M311 266h-255v18h81v337c0 13 -10 18 -26 18h-55v18l176 8v-381h79v-18z" />
    <glyph glyph-name="two.superior" horiz-adv-x="366" 
d="M335 266h-312v53c38 27 77 54 115 81c65 45 96 77 96 155c0 45 -26 89 -80 89c-19 0 -42 -7 -58 -16c-7 -4 -29 -20 -29 -28s11 -8 16 -8c30 0 58 -13 58 -44c0 -28 -22 -42 -51 -42c-36 0 -54 28 -54 58c0 54 55 101 154 101c72 0 153 -27 153 -105
c0 -43 -28 -72 -61 -99c-58 -47 -130 -79 -193 -119h207c30 0 20 37 23 55h23z" />
    <glyph glyph-name="three.superior" horiz-adv-x="366" 
d="M193 481v-2c68 -11 150 -25 150 -106c0 -79 -102 -116 -196 -116c-76 0 -123 41 -123 75c0 27 14 50 47 50c27 0 51 -15 51 -42c0 -18 -9 -27 -17 -33c-9 -6 -18 -9 -18 -15c0 -13 54 -18 63 -18c53 0 81 34 81 88c0 74 -28 104 -100 104c-14 0 -26 -1 -38 -1
c-10 0 -9 16 -1 18c13 1 26 1 39 3c66 6 84 31 84 90c0 54 -14 72 -61 72c-10 0 -46 0 -46 -15c0 -5 8 -7 16 -12c7 -6 15 -14 15 -32c0 -25 -19 -41 -46 -41c-24 0 -43 19 -43 41c0 46 49 76 124 76c59 0 144 -23 144 -90c0 -61 -72 -83 -125 -94z" />
    <glyph glyph-name="uni2206" unicode="&#x2206;" horiz-adv-x="704" 
d="M667 0h-631v41l275 607l71 16l285 -623v-41zM477 69l-182 415l-178 -415h360z" />
    <glyph glyph-name="uni2010" unicode="&#x2010;" horiz-adv-x="333" 
d="M309 150h-285v102h285v-102z" />
    </font>
</defs>
</svg>
