<?xml version="1.0" standalone="no"?>
<!DOCTYPE svg PUBLIC "-//W3C//DTD SVG 1.1//EN" "http://www.w3.org/Graphics/SVG/1.1/DTD/svg11.dtd" >
<svg xmlns="http://www.w3.org/2000/svg" xmlns:xlink="http://www.w3.org/1999/xlink" version="1.1">
<metadata>
Created by FontForge 20190801 at Sat Oct 12 22:31:25 2002
 By Jimmy Wärting
 Copyright 1989, 1991, 2002 Fundicion Tipografica Neufville S. A.
 This record material and the data recorded thereon is the property of
 Fundicion Tipografica Neufville S. A. and Adobe Systems Incorporated,
 or its licensors, and may not be reproduced, used, displayed, modified,
 disclosed or transferred in any manner without the express written
 approval of Fundicion Tipografica Neufville S. A. and Adobe Systems
 Incorporated. 
</metadata>
<defs>
<font id="BauerBodoniStd-Roman" horiz-adv-x="278" >
  <font-face 
    font-family="Bauer Bodoni Std 1"
    font-weight="400"
    font-stretch="normal"
    units-per-em="1000"
    panose-1="2 7 6 3 8 7 6 2 3 3"
    ascent="735"
    descent="-265"
    x-height="410"
    cap-height="704"
    bbox="-170 -280 1000 941"
    underline-thickness="50"
    underline-position="-100"
    stemh="16"
    stemv="84"
    unicode-range="U+0020-FB02"
  />
<missing-glyph horiz-adv-x="500" 
d="M0 0v700h500v-700h-500zM250 395l170 255h-340zM280 350l170 -255v510zM80 50h340l-170 255zM50 605v-510l170 255z" />
    <glyph glyph-name="f_i" unicode="fi" horiz-adv-x="556" 
d="M112 16v378h-90v16h90v66c0 126 72 259 220 259c58 0 136 -20 136 -93c0 -33 -19 -54 -50 -54c-26 0 -46 19 -46 45c0 47 55 34 55 54c0 14 -36 32 -82 32c-126 0 -149 -62 -149 -164v-145h179c32 0 64 2 84 22v-416h80v-16h-237v16h73v378h-179v-378h77v-16h-251v16h90z
" />
    <glyph glyph-name="f_l" unicode="fl" horiz-adv-x="556" 
d="M112 16v378h-90v16h90v34c0 237 141 291 195 291c48 0 75 -17 93 -39l59 37v-717h80v-16h-237v16h73v575c-4 -2 -8 -3 -17 -3s-35 10 -35 40c0 49 49 48 49 62c0 21 -37 29 -61 29c-42 0 -115 -15 -115 -129v-180h103v-16h-103v-378h77v-16h-251v16h90z" />
    <glyph glyph-name=".notdef" horiz-adv-x="500" 
d="M0 0v700h500v-700h-500zM250 395l170 255h-340zM280 350l170 -255v510zM80 50h340l-170 255zM50 605v-510l170 255z" />
    <glyph glyph-name="space" unicode=" " 
 />
    <glyph glyph-name="exclam" unicode="!" horiz-adv-x="388" 
d="M186 148v58c0 88 -9 296 -52 404c22 29 41 68 55 102c2 5 3 8 5 8s3 -3 5 -8c14 -34 33 -73 55 -102c-43 -108 -52 -316 -52 -404v-58h-16zM194 90c27 0 51 -23 51 -51s-24 -51 -51 -51c-28 0 -51 23 -51 51s23 51 51 51z" />
    <glyph glyph-name="quotedbl" unicode="&#x22;" horiz-adv-x="500" 
d="M355 621l-16 -160c-1 -7 -1 -28 -17 -28s-16 21 -17 28l-16 160c-2 15 -3 29 -3 44c0 18 0 55 36 55s36 -37 36 -55c0 -15 -2 -29 -3 -44zM211 621l-16 -160c-1 -7 -1 -28 -17 -28s-16 21 -17 28l-16 160c-2 15 -3 29 -3 44c0 18 0 55 36 55s36 -37 36 -55
c0 -15 -2 -29 -3 -44z" />
    <glyph glyph-name="numbersign" unicode="#" horiz-adv-x="556" 
d="M106 0l32 225h-108v48h114l22 152h-108v48h114l32 225h56l-32 -225h135l31 225h56l-32 -225h108v-48h-114l-22 -152h108v-48h-114l-32 -225h-56l32 225h-134l-32 -225h-56zM335 273l21 152h-134l-22 -152h135z" />
    <glyph glyph-name="dollar" unicode="$" horiz-adv-x="556" 
d="M273 305v-299c5 -2 11 -2 16 -2c96 0 165 60 165 148c0 128 -89 139 -181 153zM257 420v273c-4 1 -8 1 -11 1c-91 0 -150 -55 -150 -143c0 -97 74 -117 161 -131zM257 -159v149c-82 7 -129 49 -162 49c-24 0 -25 -25 -25 -41h-16v248h16c0 -150 82 -227 187 -239v301
c-100 14 -197 39 -197 209c0 109 69 193 187 193c3 0 7 0 10 -1v65h16v-66c80 -9 120 -58 144 -58c26 0 29 25 32 37h16v-206h-16c-8 108 -65 199 -176 211v-275c108 -19 229 -47 229 -212c0 -117 -72 -217 -217 -217c-4 0 -8 0 -12 1v-148h-16z" />
    <glyph glyph-name="percent" unicode="%" horiz-adv-x="889" 
d="M522 167c0 100 50 179 143 179s143 -79 143 -179s-50 -179 -143 -179s-143 79 -143 179zM594 167c0 -60 -2 -163 71 -163s71 103 71 163s2 163 -71 163s-71 -103 -71 -163zM153 531c0 -60 -2 -163 71 -163s71 103 71 163s2 163 -71 163s-71 -103 -71 -163zM81 531
c0 100 50 179 143 179s143 -79 143 -179s-50 -179 -143 -179s-143 79 -143 179zM235 -22l376 742h43l-376 -742h-43z" />
    <glyph glyph-name="ampersand" unicode="&#x26;" horiz-adv-x="778" 
d="M428 547c0 61 -39 95 -90 95c-45 0 -74 -31 -74 -77s39 -105 70 -152c52 24 94 75 94 134zM734 136l13 -5c-28 -61 -68 -143 -146 -143c-41 0 -105 46 -165 128c-42 -59 -111 -128 -189 -128c-89 0 -167 78 -167 167c0 93 103 164 176 205c-27 43 -70 104 -70 156
c0 80 65 142 144 142c69 0 114 -43 114 -110c0 -71 -43 -113 -101 -148c46 -66 93 -131 142 -195c34 43 81 131 143 131c34 0 63 -22 63 -65c0 -33 -22 -55 -56 -55c-31 0 -47 24 -47 48c0 18 -3 25 -10 25c-9 0 -52 -45 -84 -98c50 -64 106 -131 161 -131c39 0 70 55 79 76
zM164 219c0 -66 70 -171 143 -171c60 0 86 37 119 82c-57 71 -109 146 -162 219c-57 -37 -100 -55 -100 -130z" />
    <glyph glyph-name="quoteright" unicode="&#x2019;" 
d="M119 433l-11 11c55 48 90 93 90 171c0 38 -13 82 -62 89l-2 -2c12 -8 20 -23 20 -41c0 -27 -21 -38 -45 -38c-27 0 -45 19 -45 45c0 31 23 52 58 52c65 0 92 -51 92 -108c0 -75 -40 -132 -95 -179z" />
    <glyph glyph-name="parenleft" unicode="(" horiz-adv-x="389" 
d="M283 741l28 -21c-115 -134 -163 -291 -163 -475s48 -341 163 -475l-28 -21c-124 138 -177 307 -177 496s53 358 177 496z" />
    <glyph glyph-name="parenright" unicode=")" horiz-adv-x="389" 
d="M106 -251l-28 21c115 134 163 291 163 475s-48 341 -163 475l28 21c124 -138 177 -307 177 -496s-53 -358 -177 -496z" />
    <glyph glyph-name="asterisk" unicode="*" horiz-adv-x="500" 
d="M87 396c0 6 10 10 15 12c47 19 95 41 130 79c-39 15 -81 24 -123 24c-12 0 -24 -2 -36 -2c-8 0 -9 6 -9 10c0 5 9 18 16 23c-13 9 -34 25 -34 36c0 6 12 6 20 6c9 0 24 -3 32 -5c0 8 0 30 11 30s54 -75 128 -109c1 9 1 19 1 29c0 82 -31 117 -31 130c0 6 5 10 13 10
s16 -4 23 -8c4 14 14 43 26 43c10 0 15 -34 15 -50c5 4 15 8 22 8c4 0 9 -2 9 -10c0 -11 -55 -66 -64 -153c43 11 93 28 129 64c7 7 10 13 17 13c8 0 10 -14 10 -33c5 0 47 0 47 -13c0 -10 -34 -24 -44 -28c9 -7 16 -19 16 -24c0 -4 -2 -8 -9 -8c-9 0 -54 19 -106 19
c-18 0 -35 -1 -56 -3c73 -109 119 -100 119 -120c0 -9 -18 -14 -29 -16c2 -6 7 -23 7 -36c0 -9 0 -15 -6 -15c-12 0 -29 21 -38 32c-5 -7 -15 -20 -24 -20c-6 0 -6 14 -6 25c0 44 -10 96 -36 141c-27 -32 -57 -80 -64 -120c-1 -8 -3 -30 -15 -30c-9 0 -17 16 -21 23
c-9 -7 -34 -21 -40 -21c-5 0 -7 4 -7 10c0 9 10 31 18 40c-12 2 -26 6 -26 17z" />
    <glyph glyph-name="plus" unicode="+" horiz-adv-x="600" 
d="M270 283v223h60v-223h223v-60h-223v-223h-60v223h-223v60h223z" />
    <glyph glyph-name="comma" unicode="," 
d="M119 -197l-11 11c55 48 90 93 90 171c0 38 -13 82 -62 89l-2 -2c12 -8 20 -23 20 -41c0 -27 -21 -38 -45 -38c-27 0 -45 19 -45 45c0 31 23 52 58 52c65 0 92 -51 92 -108c0 -75 -40 -132 -95 -179z" />
    <glyph glyph-name="hyphen" unicode="-" horiz-adv-x="389" 
d="M65 211l16 60c85 -3 164 -3 243 0l-16 -60c-80 3 -162 3 -243 0z" />
    <glyph glyph-name="period" unicode="." 
d="M139 90c27 0 51 -23 51 -51s-24 -51 -51 -51c-28 0 -51 23 -51 51s23 51 51 51z" />
    <glyph glyph-name="slash" unicode="/" horiz-adv-x="389" 
d="M14 -16l297 736h64l-297 -736h-64z" />
    <glyph glyph-name="zero" unicode="0" horiz-adv-x="556" 
d="M149 349c0 -103 -11 -345 129 -345s129 242 129 345s11 345 -129 345s-129 -242 -129 -345zM53 349c0 189 71 361 225 361s225 -172 225 -361s-71 -361 -225 -361s-225 172 -225 361z" />
    <glyph glyph-name="one" unicode="1" horiz-adv-x="556" 
d="M256 16v552c0 14 -1 24 -11 24c-15 0 -100 -43 -159 -75v17c67 37 160 96 225 164h41v-682h92v-16h-282v16h94z" />
    <glyph glyph-name="two" unicode="2" horiz-adv-x="556" 
d="M500 193l-24 -193h-437c66 188 344 255 344 517c0 96 -47 177 -147 177c-69 0 -153 -49 -153 -129c0 -24 11 -28 33 -28c27 0 50 -13 50 -45c2 -37 -30 -53 -53 -51c-36 0 -63 46 -60 86c0 128 98 183 209 183c117 0 217 -73 217 -204c0 -176 -203 -222 -369 -422h358
l15 109h17z" />
    <glyph glyph-name="three" unicode="3" horiz-adv-x="556" 
d="M116 385v16h74c111 0 176 11 176 158c0 83 -35 135 -124 135c-76 0 -132 -49 -132 -72c0 -3 0 -7 3 -7s8 2 16 2c27 0 47 -14 47 -48c0 -28 -24 -42 -44 -42c-35 0 -52 30 -52 55c0 90 96 128 174 128c101 0 202 -49 202 -151c0 -125 -116 -152 -174 -164v-2
c70 -6 204 -46 204 -196c0 -138 -151 -209 -261 -209c-85 0 -191 35 -191 144c0 28 23 63 60 63c31 0 53 -15 53 -53c0 -31 -26 -49 -50 -49c-9 0 -15 3 -23 3c-6 0 -10 -4 -10 -10c0 -47 91 -82 146 -82c136 0 180 71 180 194c0 76 -24 187 -160 187h-114z" />
    <glyph glyph-name="four" unicode="4" horiz-adv-x="556" 
d="M312 16v231h-289l361 473h19l-311 -407h220v246h90v-246h100v-66h-100v-231h91v-16h-275v16h94z" />
    <glyph glyph-name="five" unicode="5" horiz-adv-x="556" 
d="M420 710h9c1 -9 1 -17 1 -24c0 -63 -61 -81 -103 -81c-50 0 -112 15 -146 15c-31 0 -48 -6 -58 -19c1 -21 3 -35 3 -74c0 -54 -8 -101 -14 -137c44 28 81 36 140 36c129 0 250 -78 250 -213c0 -149 -135 -225 -275 -225c-96 0 -182 42 -182 138c0 34 18 67 63 67
c27 0 47 -22 47 -47c0 -28 -18 -43 -44 -43c-19 0 -36 -2 -36 -17c0 -43 60 -82 147 -82c145 0 184 93 184 203s-54 203 -171 203c-62 0 -105 -20 -130 -44h-15c9 20 20 107 20 169c0 54 -12 123 -16 145c22 11 67 24 114 24c83 0 144 -21 186 -21c24 0 26 14 26 27z" />
    <glyph glyph-name="six" unicode="6" horiz-adv-x="556" 
d="M459 720l4 -16c-207 -35 -293 -137 -316 -351h2c26 46 82 91 154 91c110 0 202 -81 202 -221c0 -127 -91 -235 -227 -235c-162 0 -227 131 -227 282c0 241 185 413 408 450zM409 226c-1 97 -17 202 -121 202c-60 0 -122 -52 -138 -114c-1 -13 -3 -27 -3 -42
c0 -133 7 -268 131 -268c119 0 131 134 131 222z" />
    <glyph glyph-name="seven" unicode="7" horiz-adv-x="556" 
d="M44 527l23 171h450l-133 -272c-51 -105 -134 -291 -134 -335c0 -6 3 -10 10 -10c8 0 17 3 24 3c27 0 48 -15 48 -45c0 -32 -23 -45 -48 -45c-30 0 -50 27 -50 71c0 87 66 227 148 433l46 116h-345c-6 -20 -18 -60 -23 -87h-16z" />
    <glyph glyph-name="eight" unicode="8" horiz-adv-x="556" 
d="M172 547c0 -76 17 -121 53 -142c19 -11 42 -21 53 -21s34 10 53 21c36 21 53 66 53 142c0 78 -7 147 -106 147s-106 -69 -106 -147zM82 547c0 104 101 163 196 163s196 -59 196 -163c0 -111 -90 -146 -171 -170v-2c104 -35 206 -91 206 -201c0 -134 -125 -186 -231 -186
s-231 52 -231 186c0 110 102 166 206 201v2c-81 24 -171 59 -171 170zM143 171c0 -88 33 -167 135 -167s135 79 135 167c0 66 -21 117 -38 140c-29 39 -79 57 -97 57s-68 -18 -97 -57c-17 -23 -38 -74 -38 -140z" />
    <glyph glyph-name="nine" unicode="9" horiz-adv-x="556" 
d="M147 472c1 -97 17 -202 121 -202c60 0 122 52 138 114c1 13 3 27 3 42c0 133 -7 268 -131 268c-119 0 -131 -134 -131 -222zM97 -22l-4 16c207 35 293 137 316 351h-2c-26 -46 -82 -91 -154 -91c-110 0 -202 81 -202 221c0 127 91 235 227 235c162 0 227 -131 227 -282
c0 -241 -185 -413 -408 -450z" />
    <glyph glyph-name="colon" unicode=":" 
d="M139 378c27 0 51 -23 51 -51s-24 -51 -51 -51c-28 0 -51 23 -51 51s23 51 51 51zM139 90c27 0 51 -23 51 -51s-24 -51 -51 -51c-28 0 -51 23 -51 51s23 51 51 51z" />
    <glyph glyph-name="semicolon" unicode=";" 
d="M119 -197l-11 11c55 48 90 93 90 171c0 38 -13 82 -62 89l-2 -2c12 -8 20 -23 20 -41c0 -27 -21 -38 -45 -38c-27 0 -45 19 -45 45c0 31 23 52 58 52c65 0 92 -51 92 -108c0 -75 -40 -132 -95 -179zM139 378c27 0 51 -23 51 -51s-24 -51 -51 -51c-28 0 -51 23 -51 51
s23 51 51 51z" />
    <glyph glyph-name="less" unicode="&#x3c;" horiz-adv-x="600" 
d="M553 -8l-506 231v60l506 231v-62l-435 -199l435 -199v-62z" />
    <glyph glyph-name="equal" unicode="=" horiz-adv-x="600" 
d="M47 321v60h506v-60h-506zM47 125v60h506v-60h-506z" />
    <glyph glyph-name="greater" unicode="&#x3e;" horiz-adv-x="600" 
d="M47 514l506 -231v-60l-506 -231v62l435 199l-435 199v62z" />
    <glyph glyph-name="question" unicode="?" horiz-adv-x="500" 
d="M196 149l-13 -3c-10 40 -17 81 -17 123c0 176 199 192 199 326c0 72 -64 109 -128 109c-38 0 -96 -22 -96 -60c0 -27 66 -2 66 -63c0 -31 -22 -45 -49 -45c-34 0 -53 37 -53 66c0 68 61 118 132 118c103 0 158 -71 158 -170c0 -88 -32 -127 -68 -160
c-97 -90 -137 -127 -137 -183c0 -28 3 -44 6 -58zM194 90c27 0 51 -23 51 -51s-24 -51 -51 -51c-28 0 -51 23 -51 51s23 51 51 51z" />
    <glyph glyph-name="at" unicode="@" horiz-adv-x="800" 
d="M321 285c0 -65 28 -90 64 -90c61 0 133 113 133 245c0 32 -14 58 -49 58c-49 0 -148 -80 -148 -213zM619 527l-71 -276c-2 -9 -3 -16 -3 -29c0 -15 8 -39 43 -39c94 0 146 119 146 222c0 123 -114 279 -315 279c-179 0 -305 -123 -305 -359c0 -153 121 -305 316 -305
c102 0 164 19 221 48l10 -21c-83 -47 -165 -63 -230 -63c-279 0 -401 208 -401 352c0 229 172 384 389 384c192 0 345 -134 345 -314c0 -132 -71 -253 -192 -253c-52 0 -99 21 -99 80h-2c-8 -18 -63 -80 -120 -80c-28 0 -102 8 -102 132c0 135 93 255 205 255
c40 0 68 -30 79 -60h2l11 47h73z" />
    <glyph glyph-name="A" unicode="A" horiz-adv-x="667" 
d="M462 16l-72 212h-214l-41 -126c-7 -20 -15 -44 -15 -61c0 -14 12 -25 44 -25h52v-16h-206v16h32c31 0 44 3 63 59l215 645h11l243 -704h83v-16h-293v16h98zM385 244l-103 303h-2l-98 -303h203z" />
    <glyph glyph-name="B" unicode="B" horiz-adv-x="611" 
d="M207 688v-306h66c91 0 172 20 172 156c0 53 -40 150 -186 150h-52zM105 16v672h-95v16h305c149 0 232 -75 232 -156c0 -153 -129 -167 -201 -174v-2c109 -9 220 -56 220 -183c0 -135 -120 -189 -214 -189h-342v16h95zM207 366v-350h84c105 0 161 65 161 182
c0 112 -77 168 -191 168h-54z" />
    <glyph glyph-name="C" unicode="C" horiz-adv-x="667" 
d="M597 690v-214h-16c0 115 -97 228 -220 228c-178 0 -202 -221 -202 -352s24 -352 202 -352c126 0 220 124 220 249h16v-237h-16c0 20 -10 50 -34 50c-30 0 -83 -78 -186 -78c-169 0 -316 163 -316 368s147 368 316 368c102 0 146 -73 183 -73c28 0 37 19 37 43h16z" />
    <glyph glyph-name="D" unicode="D" horiz-adv-x="722" 
d="M105 16v672h-95v16h313c266 0 341 -219 341 -352c0 -218 -135 -352 -340 -352h-314v16h95zM207 688v-672h86c90 0 257 34 257 336c0 171 -49 336 -294 336h-49z" />
    <glyph glyph-name="E" unicode="E" horiz-adv-x="667" 
d="M105 16v672h-88v16h533l12 -170h-16c0 115 -76 154 -182 154h-157v-322h75c104 0 114 63 114 128h16v-266h-16c0 76 -10 122 -115 122h-74v-334h137c162 0 240 19 240 189h16v-205h-583v16h88z" />
    <glyph glyph-name="F" unicode="F" horiz-adv-x="611" 
d="M116 16v672h-91v16h535l14 -170h-17c-4 117 -70 154 -180 154h-159v-322h75c104 0 114 63 114 128h16v-266h-16c0 76 -10 122 -115 122h-74v-334h94v-16h-287v16h91z" />
    <glyph glyph-name="G" unicode="G" horiz-adv-x="722" 
d="M522 122v88h-92v16h279v-16h-79v-119c-34 -27 -118 -107 -269 -107c-179 0 -316 132 -316 368c0 205 147 368 316 368c110 0 159 -68 192 -68c30 0 35 25 35 50h16v-214h-16c-4 107 -102 216 -227 216c-178 0 -202 -221 -202 -352c0 -129 24 -352 202 -352
c96 0 161 31 161 122z" />
    <glyph glyph-name="H" unicode="H" horiz-adv-x="778" 
d="M105 16v672h-88v16h284v-16h-94v-318h364v318h-94v16h284v-16h-88v-672h88v-16h-284v16h94v338h-364v-338h94v-16h-284v16h88z" />
    <glyph glyph-name="I" unicode="I" horiz-adv-x="334" 
d="M116 16v672h-91v16h284v-16h-91v-672h91v-16h-284v16h91z" />
    <glyph glyph-name="J" unicode="J" horiz-adv-x="389" 
d="M177 73v615h-100v16h302v-16h-100v-582c0 -113 -63 -182 -159 -182c-69 0 -106 39 -106 84c0 40 25 59 54 59c25 0 48 -15 48 -46c0 -44 -50 -36 -50 -54c0 -14 20 -27 54 -27c43 0 78 13 78 57c0 50 -21 56 -21 76z" />
    <glyph glyph-name="K" unicode="K" horiz-adv-x="722" 
d="M116 16v672h-91v16h294v-16h-101v-328l189 182c31 30 107 105 107 125c0 13 -9 21 -41 21h-56v16h262v-16h-34c-59 0 -111 -50 -142 -79l-197 -189l289 -369c19 -23 26 -35 54 -35h55v-16h-310v16h93l-256 331l-13 -10v-321h101v-16h-294v16h91z" />
    <glyph glyph-name="L" unicode="L" horiz-adv-x="667" 
d="M125 16v672h-100v16h302v-16h-100v-672h125c192 0 252 25 252 214h16v-230h-595v16h100z" />
    <glyph glyph-name="M" unicode="M" horiz-adv-x="833" 
d="M105 99v589h-88v16h193l210 -532l206 532h190v-16h-88v-672h88v-16h-284v16h94v634h-2l-244 -634h-9l-248 622h-2v-539c0 -66 9 -83 62 -83h40v-16h-206v16h26c53 0 62 17 62 83z" />
    <glyph glyph-name="N" unicode="N" horiz-adv-x="722" 
d="M603 -6l-479 662h-2v-583c0 -48 16 -57 62 -57h40v-16h-214v16h34c46 0 62 9 62 57v615h-96v16h210l378 -522h2v452c0 41 -8 54 -52 54h-47v16h211v-16h-44c-44 0 -52 -13 -52 -54v-640h-13z" />
    <glyph glyph-name="O" unicode="O" horiz-adv-x="722" 
d="M45 352c0 205 147 368 316 368s316 -163 316 -368s-147 -368 -316 -368s-316 163 -316 368zM159 352c0 -131 24 -352 202 -352s202 221 202 352s-24 352 -202 352s-202 -221 -202 -352z" />
    <glyph glyph-name="P" unicode="P" horiz-adv-x="611" 
d="M116 16v672h-99v16h285c149 0 264 -51 264 -195c0 -141 -133 -195 -254 -195c-34 0 -74 7 -94 17v-315h102v-16h-303v16h99zM218 688v-337c15 -10 44 -21 77 -21c66 0 163 35 163 170c0 131 -60 188 -179 188h-61z" />
    <glyph glyph-name="Q" unicode="Q" horiz-adv-x="722" 
d="M412 -10v-113c0 -44 22 -73 130 -73c16 0 35 2 47 4v-16c-20 -2 -39 -4 -59 -4c-105 0 -220 13 -220 105v97c-146 27 -265 178 -265 362c0 205 147 368 316 368s316 -163 316 -368c0 -184 -118 -334 -265 -362zM159 352c0 -131 24 -352 202 -352s202 221 202 352
s-24 352 -202 352s-202 -221 -202 -352z" />
    <glyph glyph-name="R" unicode="R" horiz-adv-x="667" 
d="M125 16v672h-100v16h307c115 0 240 -26 240 -177c0 -122 -141 -154 -214 -163v-2c115 -10 176 -35 191 -167l14 -122c7 -59 35 -63 52 -63c18 0 31 6 41 10l6 -13c-20 -7 -45 -13 -82 -13c-122 0 -129 65 -143 180l-7 60c-7 63 -25 120 -138 120h-65v-338h102v-16h-304
v16h100zM227 688v-318h50c118 0 187 41 187 157c0 80 -27 161 -169 161h-68z" />
    <glyph glyph-name="S" unicode="S" horiz-adv-x="556" 
d="M54 -6v253h16c0 -168 99 -247 219 -247c96 0 165 61 165 151c0 104 -54 135 -169 153c-157 25 -231 51 -231 219c0 114 75 197 187 197c103 0 142 -61 176 -61c23 0 26 25 29 38h16v-210h-16c-9 114 -71 217 -205 217c-85 0 -145 -56 -145 -148c0 -90 34 -110 200 -140
c146 -26 206 -73 206 -203c0 -131 -72 -229 -217 -229c-100 0 -153 52 -190 52c-24 0 -25 -25 -25 -42h-16z" />
    <glyph glyph-name="T" unicode="T" horiz-adv-x="668" 
d="M283 16v672h-21c-178 0 -218 -27 -218 -191h-16v207h612v-207h-16c0 164 -40 191 -217 191h-22v-672h103v-16h-308v16h103z" />
    <glyph glyph-name="U" unicode="U" horiz-adv-x="722" 
d="M10 688v16h303v-16h-106v-523c0 -114 86 -165 171 -165c140 0 228 67 228 216v404c0 54 -17 68 -61 68h-56v16h232v-16h-45c-43 0 -54 -18 -54 -69v-415c0 -156 -112 -220 -245 -220c-165 0 -272 39 -272 198v506h-95z" />
    <glyph glyph-name="V" unicode="V" horiz-adv-x="722" 
d="M213 688l184 -547h2l142 399c24 67 35 93 35 110c0 22 -9 38 -78 38h-11v16h218v-16h-27c-57 0 -74 -28 -89 -69l-232 -643h-10l-249 712h-81v16h293v-16h-97z" />
    <glyph glyph-name="W" unicode="W" horiz-adv-x="944" 
d="M336 -24l-248 712h-71v16h232v-16h-53l190 -554h2l75 210l-119 344h-60v16h407v-16h-27c-40 0 -64 -9 -79 -55l-59 -163l111 -336h2l171 481c10 29 12 37 12 45c0 15 -10 28 -44 28h-29v16h178v-16h-9c-52 0 -71 -22 -87 -67l-231 -645h-13l-113 342h-2l-123 -342h-13z
M448 688l66 -195h2l46 129c7 19 9 32 9 41c0 12 -4 25 -40 25h-83z" />
    <glyph glyph-name="X" unicode="X" horiz-adv-x="722" 
d="M255 688l136 -246l119 188c11 17 14 24 14 32c0 17 -10 26 -58 26h-31v16h217v-16h-33c-42 0 -61 -17 -89 -61l-128 -202l229 -409h81v-16h-291v16h91l-174 313l-147 -230c-34 -53 -35 -57 -35 -65c0 -12 14 -18 39 -18h50v-16h-235v16h25c48 0 82 4 112 51l181 280
l-195 341h-87v16h293v-16h-84z" />
    <glyph glyph-name="Y" unicode="Y" horiz-adv-x="667" 
d="M288 16v242l-187 430h-91v16h291v-16h-83l167 -387l124 280c18 40 26 61 26 80c0 17 -12 27 -45 27h-38v16h205v-16h-42c-38 0 -50 -26 -63 -55l-162 -359v-258h106v-16h-314v16h106z" />
    <glyph glyph-name="Z" unicode="Z" horiz-adv-x="667" 
d="M38 0l426 688h-161c-204 0 -207 -79 -207 -178h-16v194h511l-428 -688h119c133 0 299 5 299 144v40h16v-200h-559z" />
    <glyph glyph-name="bracketleft" unicode="[" horiz-adv-x="389" 
d="M135 -239v968h191v-42h-149v-884h149v-42h-191z" />
    <glyph glyph-name="backslash" unicode="\" horiz-adv-x="389" 
d="M78 720l297 -736h-64l-297 736h64z" />
    <glyph glyph-name="bracketright" unicode="]" horiz-adv-x="389" 
d="M254 729v-968h-191v42h149v884h-149v42h191z" />
    <glyph glyph-name="asciicircum" unicode="^" horiz-adv-x="600" 
d="M91 333l183 365h52l183 -365h-62l-147 295l-147 -295h-62z" />
    <glyph glyph-name="underscore" unicode="_" horiz-adv-x="500" 
d="M0 -125v50h500v-50h-500z" />
    <glyph glyph-name="quoteleft" unicode="&#x2018;" 
d="M159 720l11 -11c-55 -48 -90 -93 -90 -171c0 -38 13 -82 62 -89l2 2c-12 8 -20 23 -20 41c0 27 21 38 45 38c27 0 45 -19 45 -45c0 -31 -23 -52 -58 -52c-65 0 -92 51 -92 108c0 75 40 132 95 179z" />
    <glyph glyph-name="a" unicode="a" horiz-adv-x="500" 
d="M397 316v-262c0 -19 3 -44 30 -44c23 0 37 19 52 40l11 -8c-19 -33 -45 -54 -88 -54c-47 0 -81 27 -88 62h-2c-34 -45 -79 -62 -145 -62c-78 0 -125 39 -125 107c0 112 149 140 252 140h19v123c0 47 -44 58 -82 58c-29 0 -97 -11 -97 -47c0 -24 33 -13 33 -58
c0 -24 -20 -42 -46 -42c-28 0 -44 22 -44 56c0 51 54 107 154 107c76 0 166 -39 166 -116zM313 219h-17c-73 0 -164 -2 -164 -109c0 -56 9 -98 73 -98c75 0 108 56 108 76v131z" />
    <glyph glyph-name="b" unicode="b" horiz-adv-x="556" 
d="M79 16v678h-69v16h69c32 0 64 2 84 25v-405h2c18 47 66 102 138 102c120 0 199 -124 199 -222c0 -117 -81 -222 -206 -222c-71 0 -118 53 -131 85h-2v-73h-153v16h69zM163 261v-116c0 -95 74 -141 133 -141c98 0 110 57 110 206c0 137 -15 206 -103 206
c-83 0 -140 -82 -140 -155z" />
    <glyph glyph-name="c" unicode="c" horiz-adv-x="444" 
d="M402 141h16c-3 -76 -69 -153 -168 -153c-129 0 -212 92 -212 205c0 131 100 239 218 239c70 0 144 -31 144 -93c0 -30 -23 -50 -48 -50c-31 0 -48 22 -48 43c0 40 25 38 25 53c0 22 -46 31 -75 31c-97 0 -120 -63 -120 -158v-87c0 -87 4 -167 116 -167
c101 0 145 76 152 137z" />
    <glyph glyph-name="d" unicode="d" horiz-adv-x="556" 
d="M393 144v117c0 73 -57 155 -140 155c-88 0 -103 -69 -103 -206c0 -149 12 -206 110 -206c68 0 134 57 133 140zM393 0v73h-2c-15 -34 -62 -85 -131 -85c-125 0 -206 105 -206 222c0 98 79 222 199 222c72 0 120 -55 138 -102h2v364h-80v16h80c32 0 64 2 84 25v-719h69
v-16h-153z" />
    <glyph glyph-name="e" unicode="e" horiz-adv-x="444" 
d="M134 249v-94c-1 -71 9 -151 103 -151c84 0 146 56 160 138h16c-16 -92 -84 -154 -176 -154c-117 0 -199 90 -199 222c0 97 78 222 187 222c118 0 179 -132 179 -174c0 -6 -3 -9 -9 -9h-261zM308 272v21c0 64 -17 123 -83 123c-70 0 -91 -59 -91 -123v-28h167c5 0 7 3 7 7
z" />
    <glyph glyph-name="f" unicode="f" horiz-adv-x="333" 
d="M112 16v378h-90v16h90v69c0 125 57 256 157 256c62 0 90 -45 90 -91c0 -24 -17 -47 -48 -47c-30 0 -42 21 -42 40c0 46 54 34 54 55c0 15 -23 27 -50 27c-48 0 -77 -27 -77 -138v-171h114v-16h-114v-378h91v-16h-265v16h90z" />
    <glyph glyph-name="g" unicode="g" horiz-adv-x="500" 
d="M109 46h234c56 0 111 -23 111 -115c0 -136 -110 -211 -231 -211c-92 0 -193 33 -193 129c0 56 57 98 100 117v2c-55 0 -81 38 -81 93c0 70 34 98 98 99v2c-45 29 -75 60 -75 114c0 89 77 156 166 156c47 0 89 -14 117 -43c18 20 43 43 77 43c29 0 51 -16 51 -45
c0 -24 -19 -35 -40 -35c-19 0 -32 16 -32 31c0 21 5 27 11 33c-20 -1 -44 -18 -57 -37c22 -24 39 -62 39 -100c0 -83 -88 -147 -166 -147c-43 0 -64 13 -75 18c-54 -1 -98 -16 -98 -63c0 -25 20 -41 44 -41zM336 -32h-167c-60 -13 -91 -48 -91 -115c0 -84 72 -117 150 -117
c102 0 202 65 202 165c0 52 -42 67 -94 67zM156 282c0 -64 0 -134 82 -134s82 63 82 134c0 80 0 134 -82 134s-82 -81 -82 -134z" />
    <glyph glyph-name="h" unicode="h" horiz-adv-x="556" 
d="M92 16v678h-79v16h79c32 0 64 2 84 25v-405h2c26 48 76 102 149 102c107 0 137 -54 137 -113v-303h79v-16h-242v16h79v327c0 55 -27 73 -59 73c-84 0 -127 -84 -145 -118v-282h76v-16h-239v16h79z" />
    <glyph glyph-name="i" unicode="i" 
d="M97 16v378h-80v16h80c32 0 64 2 84 22v-416h80v-16h-244v16h80zM88 612c0 28 23 51 51 51s51 -23 51 -51s-23 -51 -51 -51s-51 23 -51 51z" />
    <glyph glyph-name="j" unicode="j" 
d="M97 -102v496h-94v16h94c32 0 64 2 84 22v-549c0 -74 -69 -163 -133 -163c-32 0 -45 21 -45 39c0 20 14 39 39 39c27 0 39 -17 39 -36c0 -9 -2 -14 -4 -18c23 0 35 21 35 42c0 37 -15 54 -15 112zM88 612c0 28 23 51 51 51s51 -23 51 -51s-23 -51 -51 -51s-51 23 -51 51z
" />
    <glyph glyph-name="k" unicode="k" horiz-adv-x="556" 
d="M92 16v678h-79v16h79c32 0 64 2 84 25v-557l160 154c22 21 35 39 35 46c0 11 -14 16 -45 16h-34v16h211v-16h-35c-34 0 -50 -8 -84 -40l-111 -105l157 -195c22 -27 30 -38 49 -38h51v-16h-251v16h72l-140 173l-35 -33v-140h70v-16h-233v16h79z" />
    <glyph glyph-name="l" unicode="l" 
d="M97 16v678h-80v16h80c32 0 64 2 84 25v-719h80v-16h-244v16h80z" />
    <glyph glyph-name="m" unicode="m" horiz-adv-x="834" 
d="M13 0v16h79v378h-79v16h79c48 0 66 0 84 22v-98h2c27 49 69 98 144 98c64 0 128 -18 137 -107h2c20 57 70 108 145 107c102 -1 136 -59 136 -122v-294h79v-16h-242v16h79v312c0 72 -32 88 -70 88c-58 0 -109 -63 -129 -133v-267h76v-16h-239v16h79v331
c0 50 -25 69 -65 69c-60 0 -105 -47 -134 -118v-282h76v-16h-239z" />
    <glyph glyph-name="n" unicode="n" horiz-adv-x="556" 
d="M92 16v378h-79v16h79c48 0 66 0 84 22v-102h2c26 48 76 102 149 102c107 0 137 -54 137 -113v-303h79v-16h-242v16h79v327c0 55 -27 73 -59 73c-84 0 -127 -84 -145 -118v-282h76v-16h-239v16h79z" />
    <glyph glyph-name="o" unicode="o" horiz-adv-x="500" 
d="M38 210c0 115 83 222 212 222s212 -107 212 -222s-83 -222 -212 -222s-212 107 -212 222zM366 171v78c0 87 -4 167 -116 167s-116 -80 -116 -167v-78c0 -87 4 -167 116 -167s116 80 116 167z" />
    <glyph glyph-name="p" unicode="p" horiz-adv-x="556" 
d="M79 -254v648h-69v16h69c32 0 64 2 84 22v-102h2c18 47 66 102 138 102c120 0 199 -124 199 -222c0 -117 -81 -222 -206 -222c-69 0 -116 51 -131 85h-2v-327h77v-16h-230v16h69zM163 261v-117c0 -78 60 -140 133 -140c98 0 110 57 110 206c0 137 -15 206 -103 206
c-83 0 -140 -82 -140 -155z" />
    <glyph glyph-name="q" unicode="q" horiz-adv-x="556" 
d="M149 210c0 -149 12 -206 110 -206c68 0 133 57 133 140v117c0 73 -57 155 -140 155c-88 0 -103 -69 -103 -206zM393 -254v327h-2c-15 -34 -63 -85 -131 -85c-125 0 -206 105 -206 222c0 98 79 222 199 222c72 0 120 -55 138 -102h2v102c10 -10 23 -15 38 -18
c14 -3 30 -4 46 -4h69v-16h-69v-648h69v-16h-230v16h77z" />
    <glyph glyph-name="r" unicode="r" horiz-adv-x="389" 
d="M97 16v378h-84v16h84c32 0 64 2 84 22v-118h2c12 45 47 118 129 118c37 0 66 -24 66 -59c0 -26 -16 -47 -46 -47c-33 0 -44 17 -44 44c0 22 11 37 22 43c-4 3 -9 3 -14 3c-41 0 -115 -65 -115 -195v-205h91v-16h-259v16h84z" />
    <glyph glyph-name="s" unicode="s" horiz-adv-x="389" 
d="M51 -6l-2 151h13c8 -51 34 -141 139 -141c55 0 97 36 97 93c0 79 -60 80 -113 86c-65 7 -128 16 -128 120c0 72 47 129 125 129c54 0 91 -35 101 -35c6 0 7 7 7 21v8h14l4 -119h-13c-7 57 -37 109 -116 109c-51 0 -92 -28 -92 -80s39 -70 105 -74l34 -2
c81 -5 114 -49 114 -118c0 -93 -62 -154 -139 -154c-79 0 -103 43 -123 43c-13 0 -10 -16 -12 -37h-15z" />
    <glyph glyph-name="t" unicode="t" horiz-adv-x="333" 
d="M97 77v317h-87v16c104 -2 142 42 159 140h12v-140h138v-16h-138v-336c0 -41 17 -54 49 -54c50 0 72 46 78 63l15 -3c-7 -24 -36 -76 -110 -76c-70 0 -116 23 -116 89z" />
    <glyph glyph-name="u" unicode="u" horiz-adv-x="556" 
d="M97 99v295h-80v16h80c32 0 64 2 84 22v-358c0 -43 24 -70 62 -70c70 0 132 79 132 153v237h-79v16h79c32 0 64 2 84 22v-416h80v-16h-164v91h-2c-9 -23 -51 -103 -140 -103c-100 0 -136 53 -136 111z" />
    <glyph glyph-name="v" unicode="v" horiz-adv-x="500" 
d="M245 -24l-182 418h-58v16h229v-16h-74l126 -304l98 223c11 25 17 44 17 55c0 23 -28 26 -45 26h-35v16h174v-16c-46 0 -58 -4 -79 -51l-163 -367h-8z" />
    <glyph glyph-name="w" unicode="w" horiz-adv-x="722" 
d="M243 -24l-184 418h-54v16h449v-16h-80l132 -307l95 219c12 27 16 43 16 58c0 19 -13 30 -47 30h-27v16h174v-16c-62 0 -74 -28 -96 -79l-147 -339h-7l-111 249l-106 -249h-7zM157 394l127 -300l64 150l-66 150h-125z" />
    <glyph glyph-name="x" unicode="x" horiz-adv-x="500" 
d="M198 394l77 -127l49 65c12 16 25 36 25 44c0 13 -14 18 -44 18h-21v16h185v-16h-30c-39 0 -56 -13 -83 -47l-73 -93l146 -238h66v-16h-245v16h78l-100 163l-73 -96c-16 -21 -24 -40 -24 -51c0 -9 5 -16 24 -16h45v-16h-195v16h25c50 0 68 19 109 72l81 105l-122 201h-72
v16h232v-16h-60z" />
    <glyph glyph-name="y" unicode="y" horiz-adv-x="500" 
d="M156 394l132 -313l94 239c8 21 13 36 13 48c0 20 -17 26 -58 26h-41v16h195v-16c-64 0 -68 -13 -91 -69l-89 -224c-28 -70 -53 -135 -57 -151c-39 -157 -57 -220 -127 -220c-32 0 -55 19 -55 52c0 28 19 48 48 48c25 0 42 -19 42 -38c0 -7 -1 -11 -1 -16
c0 -6 2 -10 8 -10c35 0 67 170 75 202l-185 426h-54v16h223v-16h-72z" />
    <glyph glyph-name="z" unicode="z" horiz-adv-x="444" 
d="M17 0l287 394h-95c-116 0 -138 -55 -138 -138h-16v154h363l-285 -394h98c107 0 144 29 144 133h16v-149h-374z" />
    <glyph glyph-name="braceleft" unicode="{" horiz-adv-x="389" 
d="M298 -205v-34c-101 0 -139 23 -139 140v218c0 73 -5 108 -92 126c87 18 92 53 92 126v218c0 117 38 140 139 140v-34c-93 0 -97 -44 -97 -118v-190c0 -83 -7 -124 -69 -141v-2c62 -17 69 -58 69 -141v-190c0 -77 0 -118 97 -118z" />
    <glyph glyph-name="bar" unicode="|" horiz-adv-x="222" 
d="M81 -250v1000h60v-1000h-60z" />
    <glyph glyph-name="braceright" unicode="}" horiz-adv-x="389" 
d="M91 -239v34c93 0 97 44 97 118v190c0 83 7 124 69 141v2c-62 17 -69 58 -69 141v190c0 77 0 118 -97 118v34c101 0 139 -23 139 -140v-218c0 -73 5 -108 92 -126c-87 -18 -92 -53 -92 -126v-218c0 -117 -38 -140 -139 -140z" />
    <glyph glyph-name="asciitilde" unicode="~" horiz-adv-x="600" 
d="M491 319l40 -42c-30 -42 -66 -86 -123 -86c-49 0 -80 14 -119 37c-24 14 -57 27 -93 27c-40 0 -70 -33 -87 -68l-40 42c30 42 66 86 123 86c49 0 80 -14 119 -37c24 -14 57 -27 93 -27c40 0 70 33 87 68z" />
    <glyph glyph-name="exclamdown" unicode="&#xa1;" horiz-adv-x="388" 
d="M202 292v-58c0 -88 9 -296 52 -404c-22 -29 -41 -68 -55 -102c-2 -5 -3 -8 -5 -8s-3 3 -5 8c-14 34 -33 73 -55 102c43 108 52 316 52 404v58h16zM194 350c-27 0 -51 23 -51 51s24 51 51 51c28 0 51 -23 51 -51s-23 -51 -51 -51z" />
    <glyph glyph-name="cent" unicode="&#xa2;" horiz-adv-x="556" 
d="M282 6v408c-79 -9 -98 -69 -98 -156v-87c0 -81 4 -157 98 -165zM282 -127v117c-119 7 -194 96 -194 203c0 122 87 224 194 237v73h16v-71h8c70 0 144 -31 144 -93c0 -30 -23 -50 -48 -50c-31 0 -48 22 -48 43c0 40 25 38 25 53c0 22 -46 31 -75 31h-6v-412
c103 0 147 76 154 137h16c-3 -76 -69 -153 -170 -153v-115h-16z" />
    <glyph glyph-name="sterling" unicode="&#xa3;" horiz-adv-x="556" 
d="M30 333v16h114c-39 51 -80 110 -80 174c0 131 111 187 228 187c108 0 212 -47 212 -165c0 -42 -21 -74 -59 -74c-26 0 -49 18 -49 48c0 32 23 48 45 48c17 0 18 -6 28 -6c8 0 11 8 11 20c0 72 -90 113 -165 113c-106 0 -155 -69 -155 -171c0 -57 23 -115 41 -174h225v-16
h-220c9 -34 18 -77 18 -117c0 -23 -3 -49 -10 -68c56 -3 196 -100 238 -100c27 0 49 30 66 50l14 -7c-35 -45 -66 -103 -129 -103c-70 0 -150 63 -213 93c-20 -44 -57 -87 -105 -87c-34 0 -61 21 -61 57c0 66 83 102 138 102c14 0 28 0 39 -2c5 16 7 28 7 42
c0 54 -27 94 -53 140h-125zM40 51c0 -22 14 -41 47 -41c40 0 70 35 90 77c-17 10 -45 18 -68 18c-35 0 -69 -12 -69 -54z" />
    <glyph glyph-name="fraction" unicode="&#x2044;" horiz-adv-x="168" 
d="M-170 -22l463 742h45l-463 -742h-45z" />
    <glyph glyph-name="yen" unicode="&#xa5;" horiz-adv-x="556" 
d="M329 186v-170h106v-16h-302v16h106v170h-159v16h159v52l-15 43h-144v16h138l-134 369h-88v16h276v-16h-83l129 -369h12l90 261c14 41 22 62 22 81c0 17 -12 27 -45 27h-38v16h201v-16h-38c-38 0 -52 -25 -63 -55l-114 -314h143v-16h-149l-10 -27v-68h159v-16h-159z" />
    <glyph glyph-name="florin" unicode="&#x192;" horiz-adv-x="556" 
d="M99 357h138l11 69c16 99 80 284 205 284c38 0 78 -29 78 -73c0 -32 -16 -56 -47 -56c-30 0 -43 22 -43 45c1 32 26 31 26 54c0 9 -11 14 -27 14c-65 0 -87 -96 -100 -210l-15 -127h141v-16h-143l-26 -193c-22 -160 -61 -383 -194 -383c-42 0 -78 12 -78 63
c0 28 20 44 44 44c26 0 40 -16 40 -41c0 -15 -11 -24 -11 -39c0 -7 5 -11 11 -11c37 0 82 36 95 191l31 369h-136v16z" />
    <glyph glyph-name="section" unicode="&#xa7;" horiz-adv-x="556" 
d="M266 472l111 -57c58 -31 119 -56 119 -162c0 -53 -54 -131 -102 -172c57 -33 71 -75 71 -138c0 -118 -88 -185 -205 -185c-86 0 -148 45 -148 117c0 36 18 72 58 72c32 0 47 -25 47 -47c0 -33 -22 -49 -45 -49c-19 0 -27 9 -32 14c-3 -4 -4 -10 -4 -18
c0 -44 73 -73 124 -73c74 0 163 34 163 126c0 55 -24 73 -104 115l-120 63c-92 48 -139 84 -139 146c0 83 43 145 106 195c-35 24 -50 61 -50 102c0 102 64 199 185 199c74 0 142 -41 142 -112c0 -41 -20 -67 -58 -67c-25 0 -47 19 -47 45c0 29 19 45 46 45
c19 0 26 -6 34 -13c1 3 1 6 1 12c0 31 -36 74 -118 74c-70 0 -131 -42 -131 -116c1 -67 31 -82 96 -116zM454 211c0 58 -57 87 -102 110l-172 87c-35 -21 -84 -75 -84 -125c0 -34 18 -52 66 -77l219 -116c35 30 73 72 73 121z" />
    <glyph glyph-name="currency" unicode="&#xa4;" horiz-adv-x="556" 
d="M17 127l67 67c-35 43 -54 99 -54 155s19 112 54 155l-67 67l39 40l68 -68c45 39 101 54 154 54s109 -15 154 -54l68 68l39 -40l-67 -67c35 -43 54 -99 54 -155s-19 -112 -54 -155l67 -67l-39 -40l-68 68c-44 -39 -100 -54 -154 -54s-110 15 -154 54l-68 -68zM90 349
c0 -106 84 -188 188 -188c105 0 188 82 188 188s-83 188 -188 188c-105 -1 -188 -82 -188 -188z" />
    <glyph glyph-name="quotesingle" unicode="'" 
d="M172 621l-16 -160c-1 -7 -1 -28 -17 -28s-16 21 -17 28l-16 160c-2 15 -3 29 -3 44c0 18 0 55 36 55s36 -37 36 -55c0 -15 -2 -29 -3 -44z" />
    <glyph glyph-name="quotedblleft" unicode="&#x201c;" horiz-adv-x="500" 
d="M173 720l11 -11c-55 -48 -90 -93 -90 -171c0 -38 13 -82 62 -89l2 2c-12 8 -20 23 -20 41c0 27 21 38 45 38c27 0 45 -19 45 -45c0 -31 -23 -52 -58 -52c-65 0 -92 51 -92 108c0 75 40 132 95 179zM367 720l11 -11c-55 -48 -90 -93 -90 -171c0 -38 13 -82 62 -89l2 2
c-12 8 -20 23 -20 41c0 27 21 38 45 38c27 0 45 -19 45 -45c0 -31 -23 -52 -58 -52c-65 0 -92 51 -92 108c0 75 40 132 95 179z" />
    <glyph glyph-name="guillemotleft" unicode="&#xab;" horiz-adv-x="500" 
d="M228 241l145 164l29 -25l-122 -139l122 -139l-29 -25zM98 241l145 164l29 -25l-122 -139l122 -139l-29 -25z" />
    <glyph glyph-name="guilsinglleft" unicode="&#x2039;" 
d="M52 241l145 164l29 -25l-122 -139l122 -139l-29 -25z" />
    <glyph glyph-name="guilsinglright" unicode="&#x203a;" 
d="M226 241l-145 -164l-29 25l122 139l-122 139l29 25z" />
    <glyph glyph-name="endash" unicode="&#x2013;" horiz-adv-x="500" 
d="M0 214v54h500v-54h-500z" />
    <glyph glyph-name="dagger" unicode="&#x2020;" horiz-adv-x="556" 
d="M23 386c0 13 42 17 60 21c-2 11 -5 22 -5 29c0 8 5 10 9 10c23 0 18 -52 183 -52c0 178 -56 215 -56 234c0 5 3 7 7 7c10 0 22 -6 31 -10c1 13 10 85 26 85s25 -72 26 -85c9 4 21 10 31 10c4 0 7 -2 7 -7c0 -19 -56 -56 -56 -234c165 0 160 52 183 52c4 0 9 -2 9 -10
c0 -7 -3 -18 -5 -29c18 -4 60 -8 60 -21s-42 -17 -60 -21c2 -11 5 -22 5 -29c0 -8 -5 -10 -9 -10c-23 0 -18 52 -183 52c0 -350 66 -514 66 -522c0 -6 -3 -12 -10 -12c-10 0 -21 7 -34 16c-11 -85 -18 -102 -30 -102s-19 17 -30 102c-13 -9 -24 -16 -34 -16
c-7 0 -10 6 -10 12c0 8 66 172 66 522c-165 0 -160 -52 -183 -52c-4 0 -9 2 -9 10c0 7 3 18 5 29c-18 4 -60 8 -60 21z" />
    <glyph glyph-name="daggerdbl" unicode="&#x2021;" horiz-adv-x="556" 
d="M278 710c16 0 25 -72 27 -85c8 4 20 10 30 10c4 0 7 -2 7 -7c0 -12 -54 -71 -56 -201c166 0 167 55 185 55c9 0 11 -7 11 -13c0 -10 -4 -19 -10 -27c25 -5 61 -10 61 -23s-36 -18 -61 -23c6 -8 10 -17 10 -27c0 -6 -2 -13 -11 -13c-18 0 -19 55 -185 55
c1 -80 10 -121 38 -177c-28 -56 -37 -97 -38 -177c166 0 167 55 185 55c9 0 11 -7 11 -13c0 -10 -4 -19 -10 -27c25 -5 61 -10 61 -23s-36 -18 -61 -23c6 -8 10 -17 10 -27c0 -6 -2 -13 -11 -13c-18 0 -19 55 -185 55c2 -130 56 -189 56 -201c0 -5 -3 -7 -7 -7
c-10 0 -22 6 -30 10c-2 -13 -11 -85 -27 -85s-25 72 -27 85c-8 -4 -20 -10 -30 -10c-4 0 -7 2 -7 7c0 12 54 71 56 201c-166 0 -167 -55 -185 -55c-9 0 -11 7 -11 13c0 10 4 19 10 27c-25 5 -61 10 -61 23s36 18 61 23c-6 8 -10 17 -10 27c0 6 2 13 11 13
c18 0 19 -55 185 -55c-1 80 -10 121 -38 177c28 56 37 97 38 177c-166 0 -167 -55 -185 -55c-9 0 -11 7 -11 13c0 10 4 19 10 27c-25 5 -61 10 -61 23s36 18 61 23c-6 8 -10 17 -10 27c0 6 2 13 11 13c18 0 19 -55 185 -55c-2 130 -56 189 -56 201c0 5 3 7 7 7
c10 0 22 -6 30 -10c2 13 11 85 27 85z" />
    <glyph glyph-name="periodcentered" unicode="&#xb7;" 
d="M139 260c-28 0 -51 23 -51 51s23 51 51 51c27 0 51 -23 51 -51s-24 -51 -51 -51z" />
    <glyph glyph-name="paragraph" unicode="&#xb6;" horiz-adv-x="600" 
d="M545 704v-16h-81v-898h81v-16h-141v914h-78v-914h-142v16h82v503c-147 0 -198 87 -198 213c0 132 49 198 209 198h268zM266 309v379c-83 0 -126 -55 -126 -184c0 -126 62 -195 126 -195z" />
    <glyph glyph-name="bullet" unicode="&#x2022;" horiz-adv-x="500" 
d="M74 352c0 97 79 176 176 176s176 -79 176 -176s-79 -176 -176 -176s-176 79 -176 176z" />
    <glyph glyph-name="quotesinglbase" unicode="&#x201a;" 
d="M119 -197l-11 11c55 48 90 93 90 171c0 38 -13 82 -62 89l-2 -2c12 -8 20 -23 20 -41c0 -27 -21 -38 -45 -38c-27 0 -45 19 -45 45c0 31 23 52 58 52c65 0 92 -51 92 -108c0 -75 -40 -132 -95 -179z" />
    <glyph glyph-name="quotedblbase" unicode="&#x201e;" horiz-adv-x="500" 
d="M327 -197l-11 11c55 48 90 93 90 171c0 38 -13 82 -62 89l-2 -2c12 -8 20 -23 20 -41c0 -27 -21 -38 -45 -38c-27 0 -45 19 -45 45c0 31 23 52 58 52c65 0 92 -51 92 -108c0 -75 -40 -132 -95 -179zM133 -197l-11 11c55 48 90 93 90 171c0 38 -13 82 -62 89l-2 -2
c12 -8 20 -23 20 -41c0 -27 -21 -38 -45 -38c-27 0 -45 19 -45 45c0 31 23 52 58 52c65 0 92 -51 92 -108c0 -75 -40 -132 -95 -179z" />
    <glyph glyph-name="quotedblright" unicode="&#x201d;" horiz-adv-x="500" 
d="M327 433l-11 11c55 48 90 93 90 171c0 38 -13 82 -62 89l-2 -2c12 -8 20 -23 20 -41c0 -27 -21 -38 -45 -38c-27 0 -45 19 -45 45c0 31 23 52 58 52c65 0 92 -51 92 -108c0 -75 -40 -132 -95 -179zM133 433l-11 11c55 48 90 93 90 171c0 38 -13 82 -62 89l-2 -2
c12 -8 20 -23 20 -41c0 -27 -21 -38 -45 -38c-27 0 -45 19 -45 45c0 31 23 52 58 52c65 0 92 -51 92 -108c0 -75 -40 -132 -95 -179z" />
    <glyph glyph-name="guillemotright" unicode="&#xbb;" horiz-adv-x="500" 
d="M272 241l-145 -164l-29 25l122 139l-122 139l29 25zM402 241l-145 -164l-29 25l122 139l-122 139l29 25z" />
    <glyph glyph-name="ellipsis" unicode="&#x2026;" horiz-adv-x="1000" 
d="M167 90c27 0 51 -23 51 -51s-23 -51 -51 -51s-51 23 -51 51s24 51 51 51zM500 90c27 0 51 -23 51 -51s-23 -51 -51 -51s-51 23 -51 51s24 51 51 51zM833 90c27 0 51 -23 51 -51s-23 -51 -51 -51s-51 23 -51 51s24 51 51 51z" />
    <glyph glyph-name="perthousand" unicode="&#x2030;" horiz-adv-x="1000" 
d="M694 166c0 87 37 178 127 178s127 -91 127 -178s-37 -178 -127 -178s-127 91 -127 178zM760 166c0 -103 0 -162 61 -162s61 59 61 162s0 162 -61 162s-61 -59 -61 -162zM52 532c0 87 37 178 127 178s127 -91 127 -178s-37 -178 -127 -178s-127 91 -127 178zM118 532
c0 -103 0 -162 61 -162s61 59 61 162s0 162 -61 162s-61 -59 -61 -162zM380 166c0 87 37 178 127 178s127 -91 127 -178s-37 -178 -127 -178s-127 91 -127 178zM446 166c0 -103 0 -162 61 -162s61 59 61 162s0 162 -61 162s-61 -59 -61 -162zM130 -22l376 742h43l-376 -742
h-43z" />
    <glyph glyph-name="questiondown" unicode="&#xbf;" horiz-adv-x="500" 
d="M304 291l13 3c10 -40 17 -81 17 -123c0 -176 -199 -192 -199 -326c0 -72 64 -109 128 -109c38 0 96 22 96 60c0 27 -66 2 -66 63c0 31 22 45 49 45c34 0 53 -37 53 -66c0 -68 -61 -118 -132 -118c-103 0 -158 71 -158 170c0 88 32 127 68 160c97 90 137 127 137 183
c0 28 -3 44 -6 58zM306 350c-27 0 -51 23 -51 51s24 51 51 51c28 0 51 -23 51 -51s-23 -51 -51 -51z" />
    <glyph glyph-name="grave" unicode="`" 
d="M183 516l-145 90c-26 17 -40 25 -40 45s18 34 32 34c18 0 29 -11 43 -25l145 -144h-35z" />
    <glyph glyph-name="acute" unicode="&#xb4;" 
d="M60 516l145 144c14 14 25 25 43 25c14 0 32 -14 32 -34s-14 -28 -40 -45l-145 -90h-35z" />
    <glyph glyph-name="circumflex" unicode="&#x2c6;" 
d="M-11 516l122 169h56l122 -169h-33l-117 106l-117 -106h-33z" />
    <glyph glyph-name="tilde" unicode="&#x2dc;" 
d="M276 642h26c-15 -52 -48 -102 -108 -102c-27 0 -51 11 -74 24c-18 10 -42 24 -63 24c-28 0 -47 -22 -55 -48h-26c15 52 48 102 108 102c27 0 51 -11 74 -24c18 -10 42 -24 63 -24c28 0 47 22 55 48z" />
    <glyph glyph-name="macron" unicode="&#xaf;" 
d="M6 557v48h266v-48h-266z" />
    <glyph glyph-name="breve" unicode="&#x2d8;" 
d="M0 671h30c11 -65 44 -101 109 -101s98 36 109 101h30c-7 -89 -51 -155 -139 -155s-132 66 -139 155z" />
    <glyph glyph-name="dotaccent" unicode="&#x2d9;" 
d="M139 626c24 0 45 -21 45 -45s-21 -45 -45 -45c-25 0 -45 21 -45 45s20 45 45 45z" />
    <glyph glyph-name="dieresis" unicode="&#xa8;" 
d="M233 626c24 0 45 -21 45 -45s-21 -45 -45 -45c-25 0 -45 21 -45 45s20 45 45 45zM45 626c24 0 45 -21 45 -45s-21 -45 -45 -45c-25 0 -45 21 -45 45s20 45 45 45z" />
    <glyph glyph-name="ring" unicode="&#x2da;" 
d="M139 705c50 0 90 -41 90 -90s-40 -90 -90 -90s-90 41 -90 90s40 90 90 90zM139 675c-33 0 -60 -28 -60 -60s27 -60 60 -60s60 28 60 60s-27 60 -60 60z" />
    <glyph glyph-name="cedilla" unicode="&#xb8;" 
d="M145 0h24l-51 -84l2 -2c18 8 39 10 61 10c36 0 79 -23 79 -62c0 -60 -67 -78 -116 -78c-37 0 -71 10 -105 22l8 13c20 -7 37 -11 69 -11c41 -2 66 15 66 52c0 20 -12 40 -38 40c-13 0 -27 -2 -41 -6l-17 7z" />
    <glyph glyph-name="hungarumlaut" unicode="&#x2dd;" 
d="M-40 516l145 144c14 14 25 25 43 25c14 0 32 -14 32 -34s-14 -28 -40 -45l-145 -90h-35zM160 516l145 144c14 14 25 25 43 25c14 0 32 -14 32 -34s-14 -28 -40 -45l-145 -90h-35z" />
    <glyph glyph-name="ogonek" unicode="&#x2db;" 
d="M165 -154l7 -14c-24 -21 -60 -46 -110 -46c-40 0 -66 26 -66 70c0 70 99 125 135 144h17c-29 -24 -86 -76 -86 -134c0 -30 23 -44 49 -44c22 0 40 11 54 24z" />
    <glyph glyph-name="caron" unicode="&#x2c7;" 
d="M289 685l-122 -169h-56l-122 169h33l117 -106l117 106h33z" />
    <glyph glyph-name="emdash" unicode="&#x2014;" horiz-adv-x="1000" 
d="M0 214v54h1000v-54h-1000z" />
    <glyph glyph-name="AE" unicode="&#xc6;" horiz-adv-x="1000" 
d="M568 688v-322h75c104 0 114 63 114 128h16v-266h-16c0 76 -10 122 -115 122h-74v-334h118c162 0 240 19 240 189h16v-205h-586v16h110v212h-239l-68 -127c-15 -27 -23 -42 -23 -62c0 -14 17 -23 56 -23h37v-16h-219v16h19c47 0 74 21 100 69l328 603h-107v16h542l12 -170
h-16c0 115 -76 154 -182 154h-138zM466 244v424h-2l-229 -424h231z" />
    <glyph glyph-name="ordfeminine" unicode="&#xaa;" horiz-adv-x="325" 
d="M263 632v-146c0 -11 2 -26 15 -26c15 0 24 9 33 21l8 -5c-13 -20 -30 -32 -60 -32c-36 0 -56 16 -61 41h-1c-16 -31 -46 -41 -88 -41c-52 0 -89 18 -89 64c0 36 27 84 177 84v74c0 28 -22 34 -48 34c-18 0 -62 -6 -62 -28c0 -14 28 -9 28 -34c0 -17 -14 -31 -36 -31
s-36 15 -36 34c0 43 46 69 107 69c58 0 113 -24 113 -78zM197 506v76c-73 0 -105 -4 -105 -65c0 -34 6 -57 41 -57c25 0 52 12 64 46z" />
    <glyph glyph-name="Lslash" unicode="&#x141;" horiz-adv-x="667" 
d="M125 16v310l-97 -64v22l97 64v340h-100v16h302v-16h-100v-273l169 112v-22l-169 -111v-378h125c192 0 252 25 252 214h16v-230h-595v16h100z" />
    <glyph glyph-name="Oslash" unicode="&#xd8;" horiz-adv-x="722" 
d="M184 156l347 412c-26 76 -77 136 -170 136c-178 0 -202 -221 -202 -352c0 -57 5 -132 25 -196zM538 547l-347 -411c26 -77 78 -136 170 -136c178 0 202 221 202 352c0 57 -5 130 -25 195zM47 -6l88 104c-55 65 -90 154 -90 254c0 205 147 368 316 368
c82 0 158 -38 214 -100l86 102l14 -12l-87 -104c55 -67 89 -155 89 -254c0 -205 -147 -368 -316 -368c-81 0 -157 37 -214 100l-86 -102z" />
    <glyph glyph-name="OE" unicode="&#x152;" horiz-adv-x="1000" 
d="M477 10v684c-32 5 -70 10 -106 10c-201 0 -212 -217 -212 -352s11 -352 212 -352c36 0 74 5 106 10zM579 688v-322h64c104 0 114 63 114 128h16v-266h-16c0 76 -10 122 -115 122h-63v-334h107c162 0 240 19 240 189h16v-205h-370c-32 0 -64 -4 -96 -8
c-35 -4 -70 -8 -105 -8c-222 0 -326 202 -326 368s104 368 326 368c35 0 68 -4 102 -8c35 -4 71 -8 106 -8h313l12 -170h-16c0 115 -76 154 -182 154h-127z" />
    <glyph glyph-name="ordmasculine" unicode="&#xba;" horiz-adv-x="325" 
d="M20 577c0 69 54 133 143 133c88 0 142 -64 142 -133s-54 -133 -142 -133c-89 0 -143 64 -143 133zM92 577c0 -76 0 -123 71 -123c70 0 70 47 70 123s0 123 -70 123c-71 0 -71 -47 -71 -123z" />
    <glyph glyph-name="ae" unicode="&#xe6;" horiz-adv-x="722" 
d="M308 219h-12c-73 0 -164 -2 -164 -109c0 -56 9 -98 73 -98c63 0 103 41 103 67v140zM398 265h181c5 0 7 3 7 7v21c0 64 -17 123 -90 123c-77 0 -98 -59 -98 -123v-28zM398 249v-94c0 -70 10 -151 117 -151c79 0 145 57 159 137h17c-16 -91 -84 -153 -176 -153
c-113 0 -164 23 -195 70c-42 -56 -88 -70 -153 -70c-78 0 -125 39 -125 107c0 112 149 140 252 140h14v123c0 47 -39 58 -77 58c-29 0 -97 -11 -97 -47c0 -24 33 -13 33 -58c0 -24 -20 -42 -46 -42c-28 0 -44 22 -44 56c0 51 54 107 154 107c85 0 127 -32 144 -51
c17 20 61 51 121 51c125 0 186 -132 186 -174c0 -6 -3 -9 -9 -9h-275z" />
    <glyph glyph-name="dotlessi" unicode="&#x131;" 
d="M97 16v378h-80v16h80c32 0 64 2 84 22v-416h80v-16h-244v16h80z" />
    <glyph glyph-name="lslash" unicode="&#x142;" 
d="M97 16v339l-80 -52v21l80 52v318h-80v16h79c33 0 65 2 85 25v-305l80 52v-21l-80 -52v-393h80v-16h-244v16h80z" />
    <glyph glyph-name="oslash" unicode="&#xf8;" horiz-adv-x="500" 
d="M138 105l220 232c-10 47 -37 79 -108 79c-112 0 -116 -80 -116 -167v-78c0 -23 1 -45 4 -66zM363 316l-222 -233c10 -46 37 -79 109 -79c112 0 116 80 116 167v78c0 23 0 46 -3 67zM34 -4l60 63c-36 40 -56 95 -56 151c0 115 83 222 212 222c59 0 107 -22 143 -59l60 63
l13 -12l-60 -63c36 -40 56 -94 56 -151c0 -115 -83 -222 -212 -222c-59 0 -109 22 -144 58l-59 -62z" />
    <glyph glyph-name="oe" unicode="&#x153;" horiz-adv-x="778" 
d="M454 249v-94c0 -70 10 -151 117 -151c84 0 146 56 160 137h16c-16 -91 -84 -153 -176 -153c-87 0 -125 25 -165 74c-39 -49 -90 -74 -156 -74c-129 0 -212 107 -212 222s83 222 212 222c75 0 127 -30 165 -80c31 44 69 80 137 80c125 0 186 -132 186 -174
c0 -6 -3 -9 -9 -9h-275zM134 210c0 -127 0 -206 116 -206c114 0 114 79 114 206s0 206 -114 206c-116 0 -116 -79 -116 -206zM454 265h181c5 0 7 3 7 7v21c0 64 -17 123 -90 123c-77 0 -98 -59 -98 -123v-28z" />
    <glyph glyph-name="germandbls" unicode="&#xdf;" horiz-adv-x="611" 
d="M97 16v378h-80v16h80v29c0 155 85 296 220 296c87 0 170 -55 170 -145c0 -100 -131 -178 -131 -222c0 -59 204 -36 204 -197c0 -104 -59 -183 -164 -183c-80 0 -131 38 -131 103c0 46 24 62 46 62c24 0 43 -16 43 -43c0 -50 -47 -31 -47 -67c0 -26 38 -39 92 -39
c51 0 125 37 125 110c0 126 -216 101 -216 203c0 79 131 136 131 259c0 91 -38 143 -122 143c-126 0 -136 -118 -136 -233v-470h77v-16h-241v16h80z" />
    <glyph glyph-name="logicalnot" unicode="&#xac;" horiz-adv-x="600" 
d="M493 108v213h-446v60h506v-273h-60z" />
    <glyph glyph-name="mu" unicode="&#xb5;" horiz-adv-x="556" 
d="M459 432v-416h80v-16h-164v91h-2c-9 -23 -51 -103 -140 -103c-23 0 -44 5 -68 23c0 -73 14 -162 14 -232c0 -33 -14 -49 -45 -49s-45 16 -45 49c0 57 8 104 8 205v410h-80v16h80c32 0 64 2 84 22v-358c0 -43 24 -70 62 -70c70 0 132 79 132 153v237h-79v16h79
c32 0 64 2 84 22z" />
    <glyph glyph-name="trademark" unicode="&#x2122;" horiz-adv-x="990" 
d="M237 688v-313c0 -47 5 -59 30 -59h20v-16h-166v16h26c20 0 24 12 24 59v313h-49c-41 0 -71 -35 -71 -72h-16v88h338v-88h-16c0 37 -30 72 -71 72h-49zM666 300l-154 308h-2v-225c0 -41 5 -67 40 -67h14v-16h-130v16h16c33 0 36 26 36 67v252c0 25 -30 53 -55 53h-13v16
h115l157 -315l164 315h101v-16h-22c-27 0 -35 -24 -35 -60v-253c0 -47 4 -59 26 -59h24v-16h-166v16h24c22 0 26 12 26 59v233h-2l-155 -308h-9z" />
    <glyph glyph-name="Eth" unicode="&#xd0;" horiz-adv-x="722" 
d="M207 688v-288h168v-16h-168v-368h86c90 0 257 34 257 336c0 171 -49 336 -294 336h-49zM105 16v368h-77v16h77v288h-95v16h313c266 0 341 -219 341 -352c0 -218 -135 -352 -340 -352h-314v16h95z" />
    <glyph glyph-name="onehalf" unicode="&#xbd;" horiz-adv-x="834" 
d="M154 -22l463 742h45l-463 -742h-45zM137 294v330c0 8 0 14 -7 14c-9 0 -65 -25 -103 -44v10c43 23 104 58 146 94h36v-404h60v-10h-193v10h61zM807 116l-16 -116h-289c43 113 224 153 224 310c0 58 -31 106 -91 106c-44 0 -97 -29 -97 -77c0 -14 7 -17 19 -17
c18 0 33 -8 33 -27c0 -23 -16 -33 -37 -33c-27 0 -39 32 -39 54c0 77 66 110 138 110c81 0 146 -44 146 -122c0 -106 -132 -134 -238 -250h226l9 62h12z" />
    <glyph glyph-name="plusminus" unicode="&#xb1;" horiz-adv-x="600" 
d="M270 332v174h60v-174h223v-60h-223v-174h-60v174h-223v60h223zM47 0v60h506v-60h-506z" />
    <glyph glyph-name="Thorn" unicode="&#xde;" horiz-adv-x="611" 
d="M116 16v672h-99v16h303v-16h-102v-96h84c149 0 264 -51 264 -195c0 -141 -133 -195 -254 -195c-34 0 -74 7 -94 17v-203h102v-16h-303v16h99zM218 576v-337c15 -10 44 -21 77 -21c66 0 163 35 163 170c0 131 -60 188 -179 188h-61z" />
    <glyph glyph-name="onequarter" unicode="&#xbc;" horiz-adv-x="834" 
d="M174 -22l463 742h45l-463 -742h-45zM137 294v330c0 8 0 14 -7 14c-9 0 -65 -25 -103 -44v10c43 23 104 58 146 94h36v-404h60v-10h-193v10h61zM676 10v130h-198l243 292h14l-202 -244h143v144h66v-144h65v-48h-65v-130h59v-10h-186v10h61z" />
    <glyph glyph-name="divide" unicode="&#xf7;" horiz-adv-x="600" 
d="M47 223v60h506v-60h-506zM240 460c0 33 28 60 60 60s60 -28 60 -60c0 -30 -28 -60 -60 -60s-60 28 -60 60zM240 46c0 33 28 60 60 60s60 -28 60 -60c0 -30 -28 -60 -60 -60s-60 28 -60 60z" />
    <glyph glyph-name="brokenbar" unicode="&#xa6;" horiz-adv-x="222" 
d="M81 -175v350h60v-350h-60zM81 325v350h60v-350h-60z" />
    <glyph glyph-name="degree" unicode="&#xb0;" horiz-adv-x="400" 
d="M93 567c0 -55 47 -107 107 -107s107 52 107 107s-47 107 -107 107s-107 -52 -107 -107zM57 567c0 82 63 143 143 143s143 -61 143 -143s-63 -143 -143 -143s-143 61 -143 143z" />
    <glyph glyph-name="thorn" unicode="&#xfe;" horiz-adv-x="556" 
d="M79 -254v948h-69v16h69c32 0 64 2 84 25v-405h2c18 47 66 102 138 102c120 0 199 -124 199 -222c0 -117 -81 -222 -206 -222c-76 0 -116 51 -131 85h-2v-327h77v-16h-230v16h69zM163 261v-117c0 -78 53 -140 133 -140c98 0 110 57 110 206c0 137 -15 206 -103 206
c-83 0 -140 -82 -140 -155z" />
    <glyph glyph-name="threequarters" unicode="&#xbe;" horiz-adv-x="834" 
d="M194 -22l463 742h45l-463 -742h-45zM79 515v10h49c72 0 116 6 116 94c0 50 -25 81 -78 81c-49 0 -85 -29 -85 -43c0 -2 0 -4 2 -4s5 1 10 1c17 0 34 -8 34 -29c0 -19 -18 -31 -38 -31s-32 18 -32 36c0 57 62 80 117 80c71 0 136 -29 136 -91c0 -75 -75 -91 -113 -98v-2
c46 -3 133 -27 133 -116c0 -82 -98 -125 -175 -125c-59 0 -128 21 -128 86c0 20 15 43 41 43c22 0 37 -14 37 -34c0 -21 -17 -32 -33 -32c-6 0 -10 2 -15 2c-4 0 -6 -3 -6 -6c0 -28 59 -49 95 -49c83 0 112 42 112 116c0 44 -16 111 -104 111h-75zM676 10v130h-198l243 292
h14l-202 -244h143v144h66v-144h65v-48h-65v-130h59v-10h-186v10h61z" />
    <glyph glyph-name="registered" unicode="&#xae;" horiz-adv-x="800" 
d="M400 720c204 0 368 -166 368 -368c0 -203 -164 -368 -368 -368c-203 0 -368 165 -368 368c0 202 165 368 368 368zM400 672c-173 0 -314 -148 -314 -320c0 -173 141 -320 314 -320s314 147 314 320c0 172 -141 320 -314 320zM225 160v16h23c24 0 30 6 30 52v257
c0 46 -6 52 -30 52h-23v16h189c66 0 128 -29 128 -101c0 -57 -31 -97 -82 -110l56 -83c30 -38 62 -83 87 -83v-16h-65c-37 0 -62 68 -141 175h-53v-107c0 -46 6 -52 30 -52h23v-16h-172zM344 537v-186h51c54 0 81 41 81 102s-40 84 -84 84h-48z" />
    <glyph glyph-name="minus" unicode="&#x2212;" horiz-adv-x="600" 
d="M553 223h-506v60h506v-60z" />
    <glyph glyph-name="eth" unicode="&#xf0;" horiz-adv-x="500" 
d="M132 572l102 57c-30 29 -72 59 -118 79l9 12c42 -12 109 -44 145 -72l98 55l10 -14l-92 -51c52 -36 176 -148 176 -386c0 -174 -84 -264 -212 -264c-129 0 -212 107 -212 222s83 222 212 222c45 0 80 -9 114 -46h2c-20 84 -72 182 -119 230l-105 -58zM366 171v78
c0 87 -4 167 -116 167s-116 -80 -116 -167v-78c0 -87 4 -167 116 -167s116 80 116 167z" />
    <glyph glyph-name="multiply" unicode="&#xd7;" horiz-adv-x="600" 
d="M259 253l-186 186l41 41l185 -187l187 187l41 -41l-187 -186l187 -186l-41 -41l-187 187l-185 -187l-41 41z" />
    <glyph glyph-name="copyright" unicode="&#xa9;" horiz-adv-x="800" 
d="M400 720c204 0 368 -166 368 -368c0 -203 -164 -368 -368 -368c-203 0 -368 165 -368 368c0 202 165 368 368 368zM400 672c-173 0 -314 -148 -314 -320c0 -173 141 -320 314 -320s314 147 314 320c0 172 -141 320 -314 320zM583 261l-17 -74c-3 -11 -13 -15 -29 -20
c-21 -7 -63 -18 -115 -18c-123 0 -228 60 -228 211c0 89 73 205 235 205c57 0 84 -10 112 -19c16 -5 25 -13 25 -22v-74h-16c0 45 -36 99 -125 99c-106 0 -158 -80 -159 -184c-1 -113 52 -200 167 -200c76 0 115 49 135 96h15z" />
    <glyph glyph-name="Aacute" unicode="&#xc1;" horiz-adv-x="667" 
d="M462 16l-72 212h-214l-41 -126c-7 -20 -15 -44 -15 -61c0 -14 12 -25 44 -25h52v-16h-206v16h32c31 0 44 3 63 59l215 645h11l243 -704h83v-16h-293v16h98zM385 244l-103 303h-2l-98 -303h203zM255 772l145 144c14 14 25 25 43 25c14 0 32 -14 32 -34s-14 -28 -40 -45
l-145 -90h-35z" />
    <glyph glyph-name="Acircumflex" unicode="&#xc2;" horiz-adv-x="667" 
d="M462 16l-72 212h-214l-41 -126c-7 -20 -15 -44 -15 -61c0 -14 12 -25 44 -25h52v-16h-206v16h32c31 0 44 3 63 59l215 645h11l243 -704h83v-16h-293v16h98zM385 244l-103 303h-2l-98 -303h203zM184 772l122 169h56l122 -169h-33l-117 106l-117 -106h-33z" />
    <glyph glyph-name="Adieresis" unicode="&#xc4;" horiz-adv-x="667" 
d="M462 16l-72 212h-214l-41 -126c-7 -20 -15 -44 -15 -61c0 -14 12 -25 44 -25h52v-16h-206v16h32c31 0 44 3 63 59l215 645h11l243 -704h83v-16h-293v16h98zM385 244l-103 303h-2l-98 -303h203zM428 882c24 0 45 -21 45 -45s-21 -45 -45 -45c-25 0 -45 21 -45 45
s20 45 45 45zM240 882c24 0 45 -21 45 -45s-21 -45 -45 -45c-25 0 -45 21 -45 45s20 45 45 45z" />
    <glyph glyph-name="Agrave" unicode="&#xc0;" horiz-adv-x="667" 
d="M462 16l-72 212h-214l-41 -126c-7 -20 -15 -44 -15 -61c0 -14 12 -25 44 -25h52v-16h-206v16h32c31 0 44 3 63 59l215 645h11l243 -704h83v-16h-293v16h98zM385 244l-103 303h-2l-98 -303h203zM378 772l-145 90c-26 17 -40 25 -40 45s18 34 32 34c18 0 29 -11 43 -25
l145 -144h-35z" />
    <glyph glyph-name="Aring" unicode="&#xc5;" horiz-adv-x="667" 
d="M462 16l-72 212h-214l-41 -126c-7 -20 -15 -44 -15 -61c0 -14 12 -25 44 -25h52v-16h-206v16h32c31 0 44 3 63 59l215 645h11l243 -704h83v-16h-293v16h98zM385 244l-103 303h-2l-98 -303h203zM327 911c50 0 90 -41 90 -90s-40 -90 -90 -90s-90 41 -90 90s40 90 90 90z
M327 881c-33 0 -60 -28 -60 -60s27 -60 60 -60s60 28 60 60s-27 60 -60 60z" />
    <glyph glyph-name="Atilde" unicode="&#xc3;" horiz-adv-x="667" 
d="M462 16l-72 212h-214l-41 -126c-7 -20 -15 -44 -15 -61c0 -14 12 -25 44 -25h52v-16h-206v16h32c31 0 44 3 63 59l215 645h11l243 -704h83v-16h-293v16h98zM385 244l-103 303h-2l-98 -303h203zM471 898h26c-15 -52 -48 -102 -108 -102c-27 0 -51 11 -74 24
c-18 10 -42 24 -63 24c-28 0 -47 -22 -55 -48h-26c15 52 48 102 108 102c27 0 51 -11 74 -24c18 -10 42 -24 63 -24c28 0 47 22 55 48z" />
    <glyph glyph-name="Ccedilla" unicode="&#xc7;" horiz-adv-x="667" 
d="M597 690v-214h-16c0 115 -97 228 -220 228c-178 0 -202 -221 -202 -352s24 -352 202 -352c126 0 220 124 220 249h16v-237h-16c0 20 -10 50 -34 50c-30 0 -82 -76 -183 -78l-41 -68l2 -2c18 8 39 10 61 10c36 0 79 -23 79 -62c0 -60 -67 -78 -116 -78
c-37 0 -71 10 -105 22l8 13c20 -7 37 -11 69 -11c41 -2 66 15 66 52c0 20 -12 40 -38 40c-13 0 -27 -2 -41 -6l-17 7l51 84c-160 11 -297 169 -297 367c0 205 147 368 316 368c102 0 146 -73 183 -73c28 0 37 19 37 43h16z" />
    <glyph glyph-name="Eacute" unicode="&#xc9;" horiz-adv-x="667" 
d="M105 16v672h-88v16h533l12 -170h-16c0 115 -76 154 -182 154h-157v-322h75c104 0 114 63 114 128h16v-266h-16c0 76 -10 122 -115 122h-74v-334h137c162 0 240 19 240 189h16v-205h-583v16h88zM255 772l145 144c14 14 25 25 43 25c14 0 32 -14 32 -34s-14 -28 -40 -45
l-145 -90h-35z" />
    <glyph glyph-name="Ecircumflex" unicode="&#xca;" horiz-adv-x="667" 
d="M105 16v672h-88v16h533l12 -170h-16c0 115 -76 154 -182 154h-157v-322h75c104 0 114 63 114 128h16v-266h-16c0 76 -10 122 -115 122h-74v-334h137c162 0 240 19 240 189h16v-205h-583v16h88zM184 772l122 169h56l122 -169h-33l-117 106l-117 -106h-33z" />
    <glyph glyph-name="Edieresis" unicode="&#xcb;" horiz-adv-x="667" 
d="M105 16v672h-88v16h533l12 -170h-16c0 115 -76 154 -182 154h-157v-322h75c104 0 114 63 114 128h16v-266h-16c0 76 -10 122 -115 122h-74v-334h137c162 0 240 19 240 189h16v-205h-583v16h88zM428 882c24 0 45 -21 45 -45s-21 -45 -45 -45c-25 0 -45 21 -45 45
s20 45 45 45zM240 882c24 0 45 -21 45 -45s-21 -45 -45 -45c-25 0 -45 21 -45 45s20 45 45 45z" />
    <glyph glyph-name="Egrave" unicode="&#xc8;" horiz-adv-x="667" 
d="M105 16v672h-88v16h533l12 -170h-16c0 115 -76 154 -182 154h-157v-322h75c104 0 114 63 114 128h16v-266h-16c0 76 -10 122 -115 122h-74v-334h137c162 0 240 19 240 189h16v-205h-583v16h88zM378 772l-145 90c-26 17 -40 25 -40 45s18 34 32 34c18 0 29 -11 43 -25
l145 -144h-35z" />
    <glyph glyph-name="Iacute" unicode="&#xcd;" horiz-adv-x="334" 
d="M116 16v672h-91v16h284v-16h-91v-672h91v-16h-284v16h91zM88 772l145 144c14 14 25 25 43 25c14 0 32 -14 32 -34s-14 -28 -40 -45l-145 -90h-35z" />
    <glyph glyph-name="Icircumflex" unicode="&#xce;" horiz-adv-x="334" 
d="M116 16v672h-91v16h284v-16h-91v-672h91v-16h-284v16h91zM17 772l122 169h56l122 -169h-33l-117 106l-117 -106h-33z" />
    <glyph glyph-name="Idieresis" unicode="&#xcf;" horiz-adv-x="334" 
d="M116 16v672h-91v16h284v-16h-91v-672h91v-16h-284v16h91zM261 882c24 0 45 -21 45 -45s-21 -45 -45 -45c-25 0 -45 21 -45 45s20 45 45 45zM73 882c24 0 45 -21 45 -45s-21 -45 -45 -45c-25 0 -45 21 -45 45s20 45 45 45z" />
    <glyph glyph-name="Igrave" unicode="&#xcc;" horiz-adv-x="334" 
d="M116 16v672h-91v16h284v-16h-91v-672h91v-16h-284v16h91zM211 772l-145 90c-26 17 -40 25 -40 45s18 34 32 34c18 0 29 -11 43 -25l145 -144h-35z" />
    <glyph glyph-name="Ntilde" unicode="&#xd1;" horiz-adv-x="722" 
d="M603 -6l-479 662h-2v-583c0 -48 16 -57 62 -57h40v-16h-214v16h34c46 0 62 9 62 57v615h-96v16h210l378 -522h2v452c0 41 -8 54 -52 54h-47v16h211v-16h-44c-44 0 -52 -13 -52 -54v-640h-13zM498 898h26c-15 -52 -48 -102 -108 -102c-27 0 -51 11 -74 24
c-18 10 -42 24 -63 24c-28 0 -47 -22 -55 -48h-26c15 52 48 102 108 102c27 0 51 -11 74 -24c18 -10 42 -24 63 -24c28 0 47 22 55 48z" />
    <glyph glyph-name="Oacute" unicode="&#xd3;" horiz-adv-x="722" 
d="M45 352c0 205 147 368 316 368s316 -163 316 -368s-147 -368 -316 -368s-316 163 -316 368zM159 352c0 -131 24 -352 202 -352s202 221 202 352s-24 352 -202 352s-202 -221 -202 -352zM282 772l145 144c14 14 25 25 43 25c14 0 32 -14 32 -34s-14 -28 -40 -45l-145 -90
h-35z" />
    <glyph glyph-name="Ocircumflex" unicode="&#xd4;" horiz-adv-x="722" 
d="M45 352c0 205 147 368 316 368s316 -163 316 -368s-147 -368 -316 -368s-316 163 -316 368zM159 352c0 -131 24 -352 202 -352s202 221 202 352s-24 352 -202 352s-202 -221 -202 -352zM211 772l122 169h56l122 -169h-33l-117 106l-117 -106h-33z" />
    <glyph glyph-name="Odieresis" unicode="&#xd6;" horiz-adv-x="722" 
d="M45 352c0 205 147 368 316 368s316 -163 316 -368s-147 -368 -316 -368s-316 163 -316 368zM159 352c0 -131 24 -352 202 -352s202 221 202 352s-24 352 -202 352s-202 -221 -202 -352zM455 882c24 0 45 -21 45 -45s-21 -45 -45 -45c-25 0 -45 21 -45 45s20 45 45 45z
M267 882c24 0 45 -21 45 -45s-21 -45 -45 -45c-25 0 -45 21 -45 45s20 45 45 45z" />
    <glyph glyph-name="Ograve" unicode="&#xd2;" horiz-adv-x="722" 
d="M45 352c0 205 147 368 316 368s316 -163 316 -368s-147 -368 -316 -368s-316 163 -316 368zM159 352c0 -131 24 -352 202 -352s202 221 202 352s-24 352 -202 352s-202 -221 -202 -352zM405 772l-145 90c-26 17 -40 25 -40 45s18 34 32 34c18 0 29 -11 43 -25l145 -144
h-35z" />
    <glyph glyph-name="Otilde" unicode="&#xd5;" horiz-adv-x="722" 
d="M45 352c0 205 147 368 316 368s316 -163 316 -368s-147 -368 -316 -368s-316 163 -316 368zM159 352c0 -131 24 -352 202 -352s202 221 202 352s-24 352 -202 352s-202 -221 -202 -352zM498 898h26c-15 -52 -48 -102 -108 -102c-27 0 -51 11 -74 24c-18 10 -42 24 -63 24
c-28 0 -47 -22 -55 -48h-26c15 52 48 102 108 102c27 0 51 -11 74 -24c18 -10 42 -24 63 -24c28 0 47 22 55 48z" />
    <glyph glyph-name="Scaron" unicode="&#x160;" horiz-adv-x="556" 
d="M54 -6v253h16c0 -168 99 -247 219 -247c96 0 165 61 165 151c0 104 -54 135 -169 153c-157 25 -231 51 -231 219c0 114 75 197 187 197c103 0 142 -61 176 -61c23 0 26 25 29 38h16v-210h-16c-9 114 -71 217 -205 217c-85 0 -145 -56 -145 -148c0 -90 34 -110 200 -140
c146 -26 206 -73 206 -203c0 -131 -72 -229 -217 -229c-100 0 -153 52 -190 52c-24 0 -25 -25 -25 -42h-16zM428 941l-122 -169h-56l-122 169h33l117 -106l117 106h33z" />
    <glyph glyph-name="Uacute" unicode="&#xda;" horiz-adv-x="722" 
d="M10 688v16h303v-16h-106v-523c0 -114 86 -165 171 -165c140 0 228 67 228 216v404c0 54 -17 68 -61 68h-56v16h232v-16h-45c-43 0 -54 -18 -54 -69v-415c0 -156 -112 -220 -245 -220c-165 0 -272 39 -272 198v506h-95zM282 772l145 144c14 14 25 25 43 25
c14 0 32 -14 32 -34s-14 -28 -40 -45l-145 -90h-35z" />
    <glyph glyph-name="Ucircumflex" unicode="&#xdb;" horiz-adv-x="722" 
d="M10 688v16h303v-16h-106v-523c0 -114 86 -165 171 -165c140 0 228 67 228 216v404c0 54 -17 68 -61 68h-56v16h232v-16h-45c-43 0 -54 -18 -54 -69v-415c0 -156 -112 -220 -245 -220c-165 0 -272 39 -272 198v506h-95zM211 772l122 169h56l122 -169h-33l-117 106
l-117 -106h-33z" />
    <glyph glyph-name="Udieresis" unicode="&#xdc;" horiz-adv-x="722" 
d="M10 688v16h303v-16h-106v-523c0 -114 86 -165 171 -165c140 0 228 67 228 216v404c0 54 -17 68 -61 68h-56v16h232v-16h-45c-43 0 -54 -18 -54 -69v-415c0 -156 -112 -220 -245 -220c-165 0 -272 39 -272 198v506h-95zM455 882c24 0 45 -21 45 -45s-21 -45 -45 -45
c-25 0 -45 21 -45 45s20 45 45 45zM267 882c24 0 45 -21 45 -45s-21 -45 -45 -45c-25 0 -45 21 -45 45s20 45 45 45z" />
    <glyph glyph-name="Ugrave" unicode="&#xd9;" horiz-adv-x="722" 
d="M10 688v16h303v-16h-106v-523c0 -114 86 -165 171 -165c140 0 228 67 228 216v404c0 54 -17 68 -61 68h-56v16h232v-16h-45c-43 0 -54 -18 -54 -69v-415c0 -156 -112 -220 -245 -220c-165 0 -272 39 -272 198v506h-95zM405 772l-145 90c-26 17 -40 25 -40 45s18 34 32 34
c18 0 29 -11 43 -25l145 -144h-35z" />
    <glyph glyph-name="Yacute" unicode="&#xdd;" horiz-adv-x="667" 
d="M288 16v242l-187 430h-91v16h291v-16h-83l167 -387l124 280c18 40 26 61 26 80c0 17 -12 27 -45 27h-38v16h205v-16h-42c-38 0 -50 -26 -63 -55l-162 -359v-258h106v-16h-314v16h106zM255 772l145 144c14 14 25 25 43 25c14 0 32 -14 32 -34s-14 -28 -40 -45l-145 -90
h-35z" />
    <glyph glyph-name="Ydieresis" unicode="&#x178;" horiz-adv-x="667" 
d="M288 16v242l-187 430h-91v16h291v-16h-83l167 -387l124 280c18 40 26 61 26 80c0 17 -12 27 -45 27h-38v16h205v-16h-42c-38 0 -50 -26 -63 -55l-162 -359v-258h106v-16h-314v16h106zM428 882c24 0 45 -21 45 -45s-21 -45 -45 -45c-25 0 -45 21 -45 45s20 45 45 45z
M240 882c24 0 45 -21 45 -45s-21 -45 -45 -45c-25 0 -45 21 -45 45s20 45 45 45z" />
    <glyph glyph-name="Zcaron" unicode="&#x17d;" horiz-adv-x="667" 
d="M38 0l426 688h-161c-204 0 -207 -79 -207 -178h-16v194h511l-428 -688h119c133 0 299 5 299 144v40h16v-200h-559zM484 941l-122 -169h-56l-122 169h33l117 -106l117 106h33z" />
    <glyph glyph-name="aacute" unicode="&#xe1;" horiz-adv-x="500" 
d="M397 316v-262c0 -19 3 -44 30 -44c23 0 37 19 52 40l11 -8c-19 -33 -45 -54 -88 -54c-47 0 -81 27 -88 62h-2c-34 -45 -79 -62 -145 -62c-78 0 -125 39 -125 107c0 112 149 140 252 140h19v123c0 47 -44 58 -82 58c-29 0 -97 -11 -97 -47c0 -24 33 -13 33 -58
c0 -24 -20 -42 -46 -42c-28 0 -44 22 -44 56c0 51 54 107 154 107c76 0 166 -39 166 -116zM313 219h-17c-73 0 -164 -2 -164 -109c0 -56 9 -98 73 -98c75 0 108 56 108 76v131zM171 552l145 144c14 14 25 25 43 25c14 0 32 -14 32 -34s-14 -28 -40 -45l-145 -90h-35z" />
    <glyph glyph-name="acircumflex" unicode="&#xe2;" horiz-adv-x="500" 
d="M397 316v-262c0 -19 3 -44 30 -44c23 0 37 19 52 40l11 -8c-19 -33 -45 -54 -88 -54c-47 0 -81 27 -88 62h-2c-34 -45 -79 -62 -145 -62c-78 0 -125 39 -125 107c0 112 149 140 252 140h19v123c0 47 -44 58 -82 58c-29 0 -97 -11 -97 -47c0 -24 33 -13 33 -58
c0 -24 -20 -42 -46 -42c-28 0 -44 22 -44 56c0 51 54 107 154 107c76 0 166 -39 166 -116zM313 219h-17c-73 0 -164 -2 -164 -109c0 -56 9 -98 73 -98c75 0 108 56 108 76v131zM100 552l122 169h56l122 -169h-33l-117 106l-117 -106h-33z" />
    <glyph glyph-name="adieresis" unicode="&#xe4;" horiz-adv-x="500" 
d="M397 316v-262c0 -19 3 -44 30 -44c23 0 37 19 52 40l11 -8c-19 -33 -45 -54 -88 -54c-47 0 -81 27 -88 62h-2c-34 -45 -79 -62 -145 -62c-78 0 -125 39 -125 107c0 112 149 140 252 140h19v123c0 47 -44 58 -82 58c-29 0 -97 -11 -97 -47c0 -24 33 -13 33 -58
c0 -24 -20 -42 -46 -42c-28 0 -44 22 -44 56c0 51 54 107 154 107c76 0 166 -39 166 -116zM313 219h-17c-73 0 -164 -2 -164 -109c0 -56 9 -98 73 -98c75 0 108 56 108 76v131zM344 662c24 0 45 -21 45 -45s-21 -45 -45 -45c-25 0 -45 21 -45 45s20 45 45 45zM156 662
c24 0 45 -21 45 -45s-21 -45 -45 -45c-25 0 -45 21 -45 45s20 45 45 45z" />
    <glyph glyph-name="agrave" unicode="&#xe0;" horiz-adv-x="500" 
d="M397 316v-262c0 -19 3 -44 30 -44c23 0 37 19 52 40l11 -8c-19 -33 -45 -54 -88 -54c-47 0 -81 27 -88 62h-2c-34 -45 -79 -62 -145 -62c-78 0 -125 39 -125 107c0 112 149 140 252 140h19v123c0 47 -44 58 -82 58c-29 0 -97 -11 -97 -47c0 -24 33 -13 33 -58
c0 -24 -20 -42 -46 -42c-28 0 -44 22 -44 56c0 51 54 107 154 107c76 0 166 -39 166 -116zM313 219h-17c-73 0 -164 -2 -164 -109c0 -56 9 -98 73 -98c75 0 108 56 108 76v131zM294 552l-145 90c-26 17 -40 25 -40 45s18 34 32 34c18 0 29 -11 43 -25l145 -144h-35z" />
    <glyph glyph-name="aring" unicode="&#xe5;" horiz-adv-x="500" 
d="M397 316v-262c0 -19 3 -44 30 -44c23 0 37 19 52 40l11 -8c-19 -33 -45 -54 -88 -54c-47 0 -81 27 -88 62h-2c-34 -45 -79 -62 -145 -62c-78 0 -125 39 -125 107c0 112 149 140 252 140h19v123c0 47 -44 58 -82 58c-29 0 -97 -11 -97 -47c0 -24 33 -13 33 -58
c0 -24 -20 -42 -46 -42c-28 0 -44 22 -44 56c0 51 54 107 154 107c76 0 166 -39 166 -116zM313 219h-17c-73 0 -164 -2 -164 -109c0 -56 9 -98 73 -98c75 0 108 56 108 76v131zM250 701c50 0 90 -41 90 -90s-40 -90 -90 -90s-90 41 -90 90s40 90 90 90zM250 671
c-33 0 -60 -28 -60 -60s27 -60 60 -60s60 28 60 60s-27 60 -60 60z" />
    <glyph glyph-name="atilde" unicode="&#xe3;" horiz-adv-x="500" 
d="M397 316v-262c0 -19 3 -44 30 -44c23 0 37 19 52 40l11 -8c-19 -33 -45 -54 -88 -54c-47 0 -81 27 -88 62h-2c-34 -45 -79 -62 -145 -62c-78 0 -125 39 -125 107c0 112 149 140 252 140h19v123c0 47 -44 58 -82 58c-29 0 -97 -11 -97 -47c0 -24 33 -13 33 -58
c0 -24 -20 -42 -46 -42c-28 0 -44 22 -44 56c0 51 54 107 154 107c76 0 166 -39 166 -116zM313 219h-17c-73 0 -164 -2 -164 -109c0 -56 9 -98 73 -98c75 0 108 56 108 76v131zM387 678h26c-15 -52 -48 -102 -108 -102c-27 0 -51 11 -74 24c-18 10 -42 24 -63 24
c-28 0 -47 -22 -55 -48h-26c15 52 48 102 108 102c27 0 51 -11 74 -24c18 -10 42 -24 63 -24c28 0 47 22 55 48z" />
    <glyph glyph-name="ccedilla" unicode="&#xe7;" horiz-adv-x="444" 
d="M402 141h16c-3 -76 -69 -153 -168 -153c-2 0 -4 0 -5 1l-44 -73l2 -2c18 8 39 10 61 10c36 0 79 -23 79 -62c0 -60 -67 -78 -116 -78c-37 0 -71 10 -105 22l8 13c20 -7 37 -11 69 -11c41 -2 66 15 66 52c0 20 -12 40 -38 40c-13 0 -27 -2 -41 -6l-17 7l53 90
c-113 11 -184 98 -184 202c0 131 100 239 218 239c70 0 144 -31 144 -93c0 -30 -23 -50 -48 -50c-31 0 -48 22 -48 43c0 40 25 38 25 53c0 22 -46 31 -75 31c-97 0 -120 -63 -120 -158v-87c0 -87 4 -167 116 -167c101 0 145 76 152 137z" />
    <glyph glyph-name="eacute" unicode="&#xe9;" horiz-adv-x="444" 
d="M134 249v-94c-1 -71 9 -151 103 -151c84 0 146 56 160 138h16c-16 -92 -84 -154 -176 -154c-117 0 -199 90 -199 222c0 97 78 222 187 222c118 0 179 -132 179 -174c0 -6 -3 -9 -9 -9h-261zM308 272v21c0 64 -17 123 -83 123c-70 0 -91 -59 -91 -123v-28h167c5 0 7 3 7 7
zM143 552l145 144c14 14 25 25 43 25c14 0 32 -14 32 -34s-14 -28 -40 -45l-145 -90h-35z" />
    <glyph glyph-name="ecircumflex" unicode="&#xea;" horiz-adv-x="444" 
d="M134 249v-94c-1 -71 9 -151 103 -151c84 0 146 56 160 138h16c-16 -92 -84 -154 -176 -154c-117 0 -199 90 -199 222c0 97 78 222 187 222c118 0 179 -132 179 -174c0 -6 -3 -9 -9 -9h-261zM308 272v21c0 64 -17 123 -83 123c-70 0 -91 -59 -91 -123v-28h167c5 0 7 3 7 7
zM72 552l122 169h56l122 -169h-33l-117 106l-117 -106h-33z" />
    <glyph glyph-name="edieresis" unicode="&#xeb;" horiz-adv-x="444" 
d="M134 249v-94c-1 -71 9 -151 103 -151c84 0 146 56 160 138h16c-16 -92 -84 -154 -176 -154c-117 0 -199 90 -199 222c0 97 78 222 187 222c118 0 179 -132 179 -174c0 -6 -3 -9 -9 -9h-261zM308 272v21c0 64 -17 123 -83 123c-70 0 -91 -59 -91 -123v-28h167c5 0 7 3 7 7
zM316 662c24 0 45 -21 45 -45s-21 -45 -45 -45c-25 0 -45 21 -45 45s20 45 45 45zM128 662c24 0 45 -21 45 -45s-21 -45 -45 -45c-25 0 -45 21 -45 45s20 45 45 45z" />
    <glyph glyph-name="egrave" unicode="&#xe8;" horiz-adv-x="444" 
d="M134 249v-94c-1 -71 9 -151 103 -151c84 0 146 56 160 138h16c-16 -92 -84 -154 -176 -154c-117 0 -199 90 -199 222c0 97 78 222 187 222c118 0 179 -132 179 -174c0 -6 -3 -9 -9 -9h-261zM308 272v21c0 64 -17 123 -83 123c-70 0 -91 -59 -91 -123v-28h167c5 0 7 3 7 7
zM266 552l-145 90c-26 17 -40 25 -40 45s18 34 32 34c18 0 29 -11 43 -25l145 -144h-35z" />
    <glyph glyph-name="iacute" unicode="&#xed;" 
d="M97 16v378h-80v16h80c32 0 64 2 84 22v-416h80v-16h-244v16h80zM60 552l145 144c14 14 25 25 43 25c14 0 32 -14 32 -34s-14 -28 -40 -45l-145 -90h-35z" />
    <glyph glyph-name="icircumflex" unicode="&#xee;" 
d="M97 16v378h-80v16h80c32 0 64 2 84 22v-416h80v-16h-244v16h80zM-11 552l122 169h56l122 -169h-33l-117 106l-117 -106h-33z" />
    <glyph glyph-name="idieresis" unicode="&#xef;" 
d="M97 16v378h-80v16h80c32 0 64 2 84 22v-416h80v-16h-244v16h80zM233 662c24 0 45 -21 45 -45s-21 -45 -45 -45c-25 0 -45 21 -45 45s20 45 45 45zM45 662c24 0 45 -21 45 -45s-21 -45 -45 -45c-25 0 -45 21 -45 45s20 45 45 45z" />
    <glyph glyph-name="igrave" unicode="&#xec;" 
d="M97 16v378h-80v16h80c32 0 64 2 84 22v-416h80v-16h-244v16h80zM183 552l-145 90c-26 17 -40 25 -40 45s18 34 32 34c18 0 29 -11 43 -25l145 -144h-35z" />
    <glyph glyph-name="ntilde" unicode="&#xf1;" horiz-adv-x="556" 
d="M92 16v378h-79v16h79c48 0 66 0 84 22v-102h2c26 48 76 102 149 102c107 0 137 -54 137 -113v-303h79v-16h-242v16h79v327c0 55 -27 73 -59 73c-84 0 -127 -84 -145 -118v-282h76v-16h-239v16h79zM415 678h26c-15 -52 -48 -102 -108 -102c-27 0 -51 11 -74 24
c-18 10 -42 24 -63 24c-28 0 -47 -22 -55 -48h-26c15 52 48 102 108 102c27 0 51 -11 74 -24c18 -10 42 -24 63 -24c28 0 47 22 55 48z" />
    <glyph glyph-name="oacute" unicode="&#xf3;" horiz-adv-x="500" 
d="M38 210c0 115 83 222 212 222s212 -107 212 -222s-83 -222 -212 -222s-212 107 -212 222zM366 171v78c0 87 -4 167 -116 167s-116 -80 -116 -167v-78c0 -87 4 -167 116 -167s116 80 116 167zM171 552l145 144c14 14 25 25 43 25c14 0 32 -14 32 -34s-14 -28 -40 -45
l-145 -90h-35z" />
    <glyph glyph-name="ocircumflex" unicode="&#xf4;" horiz-adv-x="500" 
d="M38 210c0 115 83 222 212 222s212 -107 212 -222s-83 -222 -212 -222s-212 107 -212 222zM366 171v78c0 87 -4 167 -116 167s-116 -80 -116 -167v-78c0 -87 4 -167 116 -167s116 80 116 167zM100 552l122 169h56l122 -169h-33l-117 106l-117 -106h-33z" />
    <glyph glyph-name="odieresis" unicode="&#xf6;" horiz-adv-x="500" 
d="M38 210c0 115 83 222 212 222s212 -107 212 -222s-83 -222 -212 -222s-212 107 -212 222zM366 171v78c0 87 -4 167 -116 167s-116 -80 -116 -167v-78c0 -87 4 -167 116 -167s116 80 116 167zM344 662c24 0 45 -21 45 -45s-21 -45 -45 -45c-25 0 -45 21 -45 45
s20 45 45 45zM156 662c24 0 45 -21 45 -45s-21 -45 -45 -45c-25 0 -45 21 -45 45s20 45 45 45z" />
    <glyph glyph-name="ograve" unicode="&#xf2;" horiz-adv-x="500" 
d="M38 210c0 115 83 222 212 222s212 -107 212 -222s-83 -222 -212 -222s-212 107 -212 222zM366 171v78c0 87 -4 167 -116 167s-116 -80 -116 -167v-78c0 -87 4 -167 116 -167s116 80 116 167zM294 552l-145 90c-26 17 -40 25 -40 45s18 34 32 34c18 0 29 -11 43 -25
l145 -144h-35z" />
    <glyph glyph-name="otilde" unicode="&#xf5;" horiz-adv-x="500" 
d="M38 210c0 115 83 222 212 222s212 -107 212 -222s-83 -222 -212 -222s-212 107 -212 222zM366 171v78c0 87 -4 167 -116 167s-116 -80 -116 -167v-78c0 -87 4 -167 116 -167s116 80 116 167zM387 678h26c-15 -52 -48 -102 -108 -102c-27 0 -51 11 -74 24
c-18 10 -42 24 -63 24c-28 0 -47 -22 -55 -48h-26c15 52 48 102 108 102c27 0 51 -11 74 -24c18 -10 42 -24 63 -24c28 0 47 22 55 48z" />
    <glyph glyph-name="scaron" unicode="&#x161;" horiz-adv-x="389" 
d="M51 -6l-2 151h13c8 -51 34 -141 139 -141c55 0 97 36 97 93c0 79 -60 80 -113 86c-65 7 -128 16 -128 120c0 72 47 129 125 129c54 0 91 -35 101 -35c6 0 7 7 7 21v8h14l4 -119h-13c-7 57 -37 109 -116 109c-51 0 -92 -28 -92 -80s39 -70 105 -74l34 -2
c81 -5 114 -49 114 -118c0 -93 -62 -154 -139 -154c-79 0 -103 43 -123 43c-13 0 -10 -16 -12 -37h-15zM345 721l-122 -169h-56l-122 169h33l117 -106l117 106h33z" />
    <glyph glyph-name="uacute" unicode="&#xfa;" horiz-adv-x="556" 
d="M97 99v295h-80v16h80c32 0 64 2 84 22v-358c0 -43 24 -70 62 -70c70 0 132 79 132 153v237h-79v16h79c32 0 64 2 84 22v-416h80v-16h-164v91h-2c-9 -23 -51 -103 -140 -103c-100 0 -136 53 -136 111zM199 552l145 144c14 14 25 25 43 25c14 0 32 -14 32 -34
s-14 -28 -40 -45l-145 -90h-35z" />
    <glyph glyph-name="ucircumflex" unicode="&#xfb;" horiz-adv-x="556" 
d="M97 99v295h-80v16h80c32 0 64 2 84 22v-358c0 -43 24 -70 62 -70c70 0 132 79 132 153v237h-79v16h79c32 0 64 2 84 22v-416h80v-16h-164v91h-2c-9 -23 -51 -103 -140 -103c-100 0 -136 53 -136 111zM128 552l122 169h56l122 -169h-33l-117 106l-117 -106h-33z" />
    <glyph glyph-name="udieresis" unicode="&#xfc;" horiz-adv-x="556" 
d="M97 99v295h-80v16h80c32 0 64 2 84 22v-358c0 -43 24 -70 62 -70c70 0 132 79 132 153v237h-79v16h79c32 0 64 2 84 22v-416h80v-16h-164v91h-2c-9 -23 -51 -103 -140 -103c-100 0 -136 53 -136 111zM372 662c24 0 45 -21 45 -45s-21 -45 -45 -45c-25 0 -45 21 -45 45
s20 45 45 45zM184 662c24 0 45 -21 45 -45s-21 -45 -45 -45c-25 0 -45 21 -45 45s20 45 45 45z" />
    <glyph glyph-name="ugrave" unicode="&#xf9;" horiz-adv-x="556" 
d="M97 99v295h-80v16h80c32 0 64 2 84 22v-358c0 -43 24 -70 62 -70c70 0 132 79 132 153v237h-79v16h79c32 0 64 2 84 22v-416h80v-16h-164v91h-2c-9 -23 -51 -103 -140 -103c-100 0 -136 53 -136 111zM322 552l-145 90c-26 17 -40 25 -40 45s18 34 32 34
c18 0 29 -11 43 -25l145 -144h-35z" />
    <glyph glyph-name="yacute" unicode="&#xfd;" horiz-adv-x="500" 
d="M156 394l132 -313l94 239c8 21 13 36 13 48c0 20 -17 26 -58 26h-41v16h195v-16c-64 0 -68 -13 -91 -69l-89 -224c-28 -70 -53 -135 -57 -151c-39 -157 -57 -220 -127 -220c-32 0 -55 19 -55 52c0 28 19 48 48 48c25 0 42 -19 42 -38c0 -7 -1 -11 -1 -16
c0 -6 2 -10 8 -10c35 0 67 170 75 202l-185 426h-54v16h223v-16h-72zM171 552l145 144c14 14 25 25 43 25c14 0 32 -14 32 -34s-14 -28 -40 -45l-145 -90h-35z" />
    <glyph glyph-name="ydieresis" unicode="&#xff;" horiz-adv-x="500" 
d="M156 394l132 -313l94 239c8 21 13 36 13 48c0 20 -17 26 -58 26h-41v16h195v-16c-64 0 -68 -13 -91 -69l-89 -224c-28 -70 -53 -135 -57 -151c-39 -157 -57 -220 -127 -220c-32 0 -55 19 -55 52c0 28 19 48 48 48c25 0 42 -19 42 -38c0 -7 -1 -11 -1 -16
c0 -6 2 -10 8 -10c35 0 67 170 75 202l-185 426h-54v16h223v-16h-72zM344 662c24 0 45 -21 45 -45s-21 -45 -45 -45c-25 0 -45 21 -45 45s20 45 45 45zM156 662c24 0 45 -21 45 -45s-21 -45 -45 -45c-25 0 -45 21 -45 45s20 45 45 45z" />
    <glyph glyph-name="zcaron" unicode="&#x17e;" horiz-adv-x="444" 
d="M17 0l287 394h-95c-116 0 -138 -55 -138 -138h-16v154h363l-285 -394h98c107 0 144 29 144 133h16v-149h-374zM372 721l-122 -169h-56l-122 169h33l117 -106l117 106h33z" />
    <glyph glyph-name="exclam.sc" unicode="&#xf721;" horiz-adv-x="388" 
d="M186 148v58c0 88 -9 296 -52 404c22 29 41 68 55 102c2 5 3 8 5 8s3 -3 5 -8c14 -34 33 -73 55 -102c-43 -108 -52 -316 -52 -404v-58h-16zM194 90c27 0 51 -23 51 -51s-24 -51 -51 -51c-28 0 -51 23 -51 51s23 51 51 51z" />
    <glyph glyph-name="hungarumlaut.sc" unicode="&#xf6f8;" 
d="M-40 516l145 144c14 14 25 25 43 25c14 0 32 -14 32 -34s-14 -28 -40 -45l-145 -90h-35zM160 516l145 144c14 14 25 25 43 25c14 0 32 -14 32 -34s-14 -28 -40 -45l-145 -90h-35z" />
    <glyph glyph-name="dollar.oldstyle" unicode="&#xf724;" horiz-adv-x="556" 
d="M273 305v-299c5 -2 11 -2 16 -2c96 0 165 60 165 148c0 128 -89 139 -181 153zM257 420v273c-4 1 -8 1 -11 1c-91 0 -150 -55 -150 -143c0 -97 74 -117 161 -131zM257 -159v149c-82 7 -129 49 -162 49c-24 0 -25 -25 -25 -41h-16v248h16c0 -150 82 -227 187 -239v301
c-100 14 -197 39 -197 209c0 109 69 193 187 193c3 0 7 0 10 -1v65h16v-66c80 -9 120 -58 144 -58c26 0 29 25 32 37h16v-206h-16c-8 108 -65 199 -176 211v-275c108 -19 229 -47 229 -212c0 -117 -72 -217 -217 -217c-4 0 -8 0 -12 1v-148h-16z" />
    <glyph glyph-name="ampersand.sc" unicode="&#xf726;" horiz-adv-x="519" 
d="M168 384c0 -38 22 -72 41 -102c33 19 60 46 60 92c0 31 -22 62 -51 62c-31 0 -50 -20 -50 -52zM218 269l100 -131c44 68 61 95 97 95c22 0 44 -17 44 -46c0 -28 -17 -44 -42 -44c-24 0 -36 21 -36 36c0 11 2 18 5 24c-13 -1 -50 -58 -60 -74c27 -33 68 -89 99 -89
c32 0 50 38 67 60l10 -6c-22 -45 -53 -102 -118 -102c-34 0 -71 26 -106 71c-43 -44 -73 -71 -137 -71c-70 0 -105 69 -105 107c0 61 50 105 105 143c-22 35 -33 69 -33 105c0 57 42 105 99 105c43 0 78 -29 78 -78s-28 -79 -67 -105zM96 160c0 -24 59 -126 105 -126
c27 0 50 19 66 40c-36 43 -90 116 -117 154c-37 -27 -54 -44 -54 -68z" />
    <glyph glyph-name="acute.sc" unicode="&#xf7b4;" 
d="M60 516l145 144c14 14 25 25 43 25c14 0 32 -14 32 -34s-14 -28 -40 -45l-145 -90h-35z" />
    <glyph glyph-name="zero.oldstyle" unicode="&#xf730;" horiz-adv-x="536" 
d="M144 226c0 -113 40 -216 150 -216c78 0 164 67 164 216c0 126 -69 216 -167 216c-39 0 -147 -20 -147 -216zM54 226c0 140 92 240 221 240c164 0 207 -141 207 -240c0 -127 -67 -240 -204 -240s-224 96 -224 240z" />
    <glyph glyph-name="one.oldstyle" unicode="&#xf731;" horiz-adv-x="332" 
d="M43 0v16h81v420h-81v16h246v-16h-81v-420h81v-16h-246z" />
    <glyph glyph-name="two.oldstyle" unicode="&#xf732;" horiz-adv-x="480" 
d="M46 0v57c210 85 262 142 262 254c0 79 -18 139 -110 139c-64 0 -103 -44 -103 -56c0 -15 12 -17 29 -20c19 -3 37 -15 37 -44c0 -23 -22 -46 -52 -46c-35 0 -56 28 -56 54c0 93 97 128 173 128c117 0 172 -75 172 -146c0 -92 -80 -144 -150 -181l-122 -65v-2h277l15 102
h16l-25 -174h-363z" />
    <glyph glyph-name="three.oldstyle" unicode="&#xf733;" horiz-adv-x="464" 
d="M120 163h33c108 0 179 29 179 147c0 75 -27 140 -112 140c-72 0 -120 -48 -120 -66c0 -10 15 -11 33 -14c19 -3 33 -16 33 -42c0 -24 -15 -48 -44 -48c-35 0 -52 28 -52 56c0 89 81 130 160 130c107 0 186 -64 186 -155c0 -136 -146 -151 -188 -155v-2
c195 -16 217 -140 217 -194c0 -139 -133 -208 -250 -208c-103 0 -176 59 -176 138c0 37 22 71 62 71c31 0 55 -23 55 -51c0 -31 -13 -48 -39 -48c-8 0 -15 3 -28 3c-17 0 -20 -10 -20 -18c0 -29 50 -79 144 -79c122 0 162 85 162 196c0 183 -146 183 -201 183h-34v16z" />
    <glyph glyph-name="four.oldstyle" unicode="&#xf734;" horiz-adv-x="464" 
d="M254 -228v228h-284l350 478h20l-304 -418h218v258h84v-258h98v-60h-98v-228h-84z" />
    <glyph glyph-name="five.oldstyle" unicode="&#xf735;" horiz-adv-x="464" 
d="M358 477h16c0 -98 -61 -99 -91 -99c-36 0 -95 16 -125 16c-35 0 -62 -11 -62 -20c0 -18 5 -52 5 -83c0 -62 -7 -99 -15 -137c31 22 65 36 127 36c152 0 232 -112 232 -207c0 -155 -115 -231 -259 -231c-101 0 -167 63 -167 134c0 48 35 71 64 71c19 0 50 -8 50 -46
c0 -19 -13 -44 -39 -44c-12 0 -20 3 -27 3c-11 0 -14 -6 -14 -18c0 -35 46 -84 130 -84c134 0 172 109 172 202c0 127 -66 204 -156 204c-65 0 -101 -25 -122 -45l-11 7c14 55 19 85 19 144c0 84 -12 137 -19 164c19 12 54 22 96 22c36 0 74 -6 106 -12c32 -7 57 -10 65 -10
c23 0 25 22 25 33z" />
    <glyph glyph-name="six.oldstyle" unicode="&#xf736;" horiz-adv-x="556" 
d="M413 230c0 82 -21 194 -126 194c-45 0 -144 -30 -144 -180c0 -93 9 -242 135 -242c124 0 135 134 135 228zM461 714v-16c-245 -53 -299 -184 -312 -346h2c17 27 55 88 152 88c131 0 200 -101 200 -212c0 -128 -90 -242 -225 -242c-148 0 -225 132 -225 270
c0 375 380 458 408 458z" />
    <glyph glyph-name="seven.oldstyle" unicode="&#xf737;" horiz-adv-x="464" 
d="M19 284l22 168h423l-13 -25c-46 -88 -249 -516 -249 -580c0 -7 5 -11 11 -11c11 0 14 6 27 6c21 0 40 -16 40 -42c0 -31 -20 -48 -48 -48c-38 0 -54 32 -54 69c0 22 6 62 27 115l172 438h-323l-19 -90h-16z" />
    <glyph glyph-name="eight.oldstyle" unicode="&#xf738;" horiz-adv-x="556" 
d="M45 160c0 120 114 179 210 206v2c-91 23 -176 69 -176 161c0 97 82 171 199 171s199 -74 199 -171c0 -92 -85 -138 -176 -161v-2c96 -27 210 -86 210 -206c0 -118 -117 -174 -233 -174s-233 56 -233 174zM141 167c0 -85 41 -165 137 -165s137 80 137 165
c0 123 -59 173 -137 190c-78 -17 -137 -67 -137 -190zM163 541c0 -95 41 -151 115 -168c74 17 115 73 115 168c0 75 -33 143 -115 143s-115 -68 -115 -143z" />
    <glyph glyph-name="nine.oldstyle" unicode="&#xf739;" horiz-adv-x="556" 
d="M143 222c0 -82 21 -194 126 -194c45 0 144 30 144 180c0 93 -9 242 -135 242c-124 0 -135 -134 -135 -228zM95 -262v16c245 53 299 184 312 346h-2c-17 -27 -55 -88 -152 -88c-131 0 -200 101 -200 212c0 128 90 242 225 242c148 0 225 -132 225 -270
c0 -375 -380 -458 -408 -458z" />
    <glyph glyph-name="question.sc" unicode="&#xf73f;" horiz-adv-x="500" 
d="M196 149l-13 -3c-10 40 -17 81 -17 123c0 176 199 192 199 326c0 72 -64 109 -128 109c-38 0 -96 -22 -96 -60c0 -27 66 -2 66 -63c0 -31 -22 -45 -49 -45c-34 0 -53 37 -53 66c0 68 61 118 132 118c103 0 158 -71 158 -170c0 -88 -32 -127 -68 -160
c-97 -90 -137 -127 -137 -183c0 -28 3 -44 6 -58zM194 90c27 0 51 -23 51 -51s-24 -51 -51 -51c-28 0 -51 23 -51 51s23 51 51 51z" />
    <glyph glyph-name="circumflex.sc" unicode="&#xf6f6;" 
d="M-11 516l122 169h56l122 -169h-33l-117 106l-117 -106h-33z" />
    <glyph glyph-name="grave.sc" unicode="&#xf760;" 
d="M183 516l-145 90c-26 17 -40 25 -40 45s18 34 32 34c18 0 29 -11 43 -25l145 -144h-35z" />
    <glyph glyph-name="a.sc" unicode="&#xf761;" horiz-adv-x="463" 
d="M235 452l171 -436h55v-16h-208v16h57l-50 129h-136l-37 -91c-3 -8 -6 -13 -6 -23c0 -13 14 -15 30 -15h28v-16h-137v16h22c24 0 38 15 50 45l156 391h5zM193 324l-64 -163h125z" />
    <glyph glyph-name="b.sc" unicode="&#xf762;" horiz-adv-x="463" 
d="M180 428v-184h37c53 0 93 18 93 88c0 31 -1 96 -96 96h-34zM96 16v412h-72v16h204c74 0 166 -7 166 -101c0 -92 -117 -106 -145 -106v-2c70 -5 158 -32 158 -117c0 -98 -100 -118 -180 -118h-203v16h72zM180 228v-212h37c34 0 100 2 100 111c0 98 -67 100 -99 101h-38z
" />
    <glyph glyph-name="c.sc" unicode="&#xf763;" horiz-adv-x="463" 
d="M409 432v-134h-9c-12 71 -56 141 -142 138c-98 0 -122 -106 -122 -214s24 -214 120 -214c84 0 137 69 143 156h10v-156h-10c-3 16 -5 32 -21 32c-15 0 -50 -48 -118 -48c-132 0 -220 108 -220 230c0 114 79 230 220 230c65 0 103 -46 118 -46s19 16 21 26h10z" />
    <glyph glyph-name="d.sc" unicode="&#xf764;" horiz-adv-x="519" 
d="M96 16v412h-72v16h226c227 -2 227 -205 227 -222c0 -90 -44 -222 -238 -222h-215v16h72zM180 428v-412c102 0 201 0 201 212c0 199 -119 200 -201 200z" />
    <glyph glyph-name="e.sc" unicode="&#xf765;" horiz-adv-x="463" 
d="M96 16v412h-72v16h361l12 -113h-16c-5 71 -34 97 -106 97h-95v-193h37c65 0 72 12 74 78h16v-172h-16c-2 66 -9 78 -74 78h-37v-203h113c71 0 112 37 112 118h16v-134h-397v16h72z" />
    <glyph glyph-name="f.sc" unicode="&#xf766;" horiz-adv-x="426" 
d="M96 16v412h-72v16h362l16 -119h-16c-8 82 -41 103 -121 103h-85v-193h37c65 0 72 12 74 78h16v-172h-16c-2 66 -9 78 -74 78h-37v-203h84v-16h-240v16h72z" />
    <glyph glyph-name="g.sc" unicode="&#xf767;" horiz-adv-x="519" 
d="M287 156h222v-16h-66v-82c-24 -19 -86 -66 -178 -66c-132 0 -225 89 -225 220c0 177 123 240 217 240c82 0 112 -49 133 -49c15 0 20 22 20 41h16v-143h-16c-20 109 -109 127 -143 127c-123 0 -131 -134 -131 -218c0 -55 0 -202 128 -202c16 0 95 6 95 73v59h-72v16z" />
    <glyph glyph-name="h.sc" unicode="&#xf768;" horiz-adv-x="574" 
d="M96 16v412h-72v16h230v-16h-74v-193h214v193h-74v16h230v-16h-72v-412h72v-16h-230v16h74v203h-214v-203h74v-16h-230v16h72z" />
    <glyph glyph-name="i.sc" unicode="&#xf769;" 
d="M97 16v412h-73v16h230v-16h-73v-412h73v-16h-230v16h73z" />
    <glyph glyph-name="j.sc" unicode="&#xf76a;" horiz-adv-x="296" 
d="M204 428v-333c0 -65 -20 -148 -110 -148c-51 0 -78 27 -78 62c0 32 22 41 37 41c23 0 35 -12 35 -34c0 -16 -8 -23 -17 -27s-17 -7 -17 -16c0 -10 13 -16 35 -16c20 0 50 4 50 50c0 28 -19 49 -19 95v326h-79v16h239v-16h-76z" />
    <glyph glyph-name="k.sc" unicode="&#xf76b;" horiz-adv-x="519" 
d="M96 16v412h-72v16h230v-16h-74v-194l174 162c10 9 21 15 21 25c0 6 -6 7 -13 7h-58v16h174v-16h-51c-17 0 -22 -6 -33 -16l-143 -134l176 -246c6 -8 17 -16 40 -16h38v-16h-236v16h64l-147 204l-6 -5v-199h67v-16h-223v16h72z" />
    <glyph glyph-name="l.sc" unicode="&#xf76c;" horiz-adv-x="444" 
d="M96 16v412h-80v16h246v-16h-82v-412h97c99 0 129 37 129 133h16v-149h-406v16h80z" />
    <glyph glyph-name="m.sc" unicode="&#xf76d;" horiz-adv-x="630" 
d="M96 57v371h-72v16h157l134 -314l131 314h160v-16h-72v-412h72v-16h-230v16h74v389h-2l-166 -396h-8l-160 387h-2v-339c0 -23 6 -41 42 -41h30v-16h-160v16h30c36 0 42 18 42 41z" />
    <glyph glyph-name="n.sc" unicode="&#xf76e;" horiz-adv-x="519" 
d="M90 428h-74v16h172l223 -303h2v246c0 23 -6 41 -42 41h-30v16h162v-16h-32c-36 0 -42 -18 -42 -41v-387h-12l-309 409h-2v-352c0 -23 6 -41 42 -41h34v-16h-166v16h32c36 0 42 18 42 41v371z" />
    <glyph glyph-name="o.sc" unicode="&#xf76f;" horiz-adv-x="519" 
d="M40 222c0 114 79 230 220 230c140 0 219 -116 219 -230c0 -122 -88 -230 -219 -230c-132 0 -220 108 -220 230zM260 436c-100 0 -124 -106 -124 -214s24 -214 124 -214c99 0 123 106 123 214s-24 214 -123 214z" />
    <glyph glyph-name="p.sc" unicode="&#xf770;" horiz-adv-x="444" 
d="M96 16v412h-80v16h211c112 0 185 -35 185 -126c0 -87 -87 -126 -163 -126c-26 0 -43 5 -69 14v-190h83v-16h-247v16h80zM180 428v-206c19 -7 37 -14 60 -14c63 0 82 54 82 110c0 64 -15 110 -101 110h-41z" />
    <glyph glyph-name="q.sc" unicode="&#xf771;" horiz-adv-x="519" 
d="M399 -114v-16h-67c-103 0 -112 34 -112 87v39c-110 20 -180 117 -180 226c0 114 79 230 220 230c140 0 219 -116 219 -230c0 -109 -71 -208 -181 -226v-45c0 -46 4 -65 55 -65h46zM260 436c-100 0 -124 -106 -124 -214s24 -214 124 -214c99 0 123 106 123 214
s-24 214 -123 214z" />
    <glyph glyph-name="r.sc" unicode="&#xf772;" horiz-adv-x="481" 
d="M96 16v412h-72v16h203c84 0 172 -20 172 -106c0 -89 -106 -102 -141 -106v-2c120 -14 125 -63 132 -129c7 -65 9 -93 35 -93c13 0 26 2 42 11l5 -12c-17 -9 -44 -15 -67 -15c-91 0 -100 58 -105 114c-5 57 -5 113 -80 113h-40v-203h71v-16h-227v16h72zM180 428v-193h37
c20 0 98 3 98 98c0 66 -30 95 -94 95h-41z" />
    <glyph glyph-name="s.sc" unicode="&#xf773;" horiz-adv-x="407" 
d="M56 0v163h16c8 -85 34 -155 136 -155c71 0 101 50 101 92c0 64 -38 71 -122 90c-62 14 -124 35 -124 135c0 57 32 127 123 127c63 0 95 -36 107 -36s11 17 11 28h16v-135h-16c-2 39 -11 127 -120 127c-51 0 -85 -31 -85 -83c0 -62 62 -68 125 -83
c64 -15 127 -39 127 -138c0 -80 -48 -140 -137 -140c-73 0 -112 33 -128 33c-6 0 -14 -3 -14 -13v-12h-16z" />
    <glyph glyph-name="t.sc" unicode="&#xf774;" horiz-adv-x="464" 
d="M190 16v412h-50c-90 0 -102 -41 -102 -118h-16v134h420v-134h-16c0 77 -12 118 -102 118h-50v-412h84v-16h-252v16h84z" />
    <glyph glyph-name="u.sc" unicode="&#xf775;" horiz-adv-x="519" 
d="M9 428v16h243v-16h-80v-290c0 -92 44 -130 113 -130s128 34 128 118v261c0 23 -6 41 -42 41h-45v16h177v-16h-32c-36 0 -42 -18 -42 -41v-254c0 -119 -89 -141 -164 -141c-177 0 -177 86 -177 139v297h-79z" />
    <glyph glyph-name="v.sc" unicode="&#xf776;" horiz-adv-x="481" 
d="M0 428v16h216v-16h-63l121 -312l113 277c5 11 5 17 5 23s-7 12 -25 12h-30v16h144v-16h-31c-22 0 -34 -4 -47 -36l-164 -400h-6l-173 436h-60z" />
    <glyph glyph-name="w.sc" unicode="&#xf777;" horiz-adv-x="685" 
d="M145 428l134 -327l51 114l-88 213h-44v16h318v-16h-52c-20 0 -24 -8 -29 -19l-49 -109l82 -199l127 295c2 5 5 12 5 18c0 14 -14 14 -23 14h-31v16h144v-16h-35c-14 0 -30 -2 -44 -33l-176 -403h-8l-90 207l-92 -207h-8l-182 436h-60v16h186v-16h-36zM332 428l47 -111
l37 84c2 4 4 11 4 17c0 9 -10 10 -18 10h-70z" />
    <glyph glyph-name="x.sc" unicode="&#xf778;" horiz-adv-x="500" 
d="M98 59l118 157l-138 212h-54v16h210v-16h-48l90 -144l83 110c10 13 12 19 12 24c0 6 -5 10 -19 10h-33v16h139v-16h-34c-18 0 -27 -10 -38 -24l-102 -132l165 -256h52v-16h-210v16h53l-120 188l-112 -150c-6 -8 -14 -18 -14 -26c0 -10 17 -12 27 -12h24v-16h-150v16h28
c33 0 53 19 71 43z" />
    <glyph glyph-name="y.sc" unicode="&#xf779;" horiz-adv-x="444" 
d="M184 16v161l-133 251h-56v16h210v-16h-52l111 -223l97 185c5 11 7 19 7 25c0 9 -4 13 -30 13h-15v16h126v-16h-28c-24 0 -33 -18 -45 -41l-108 -204v-167h83v-16h-250v16h83z" />
    <glyph glyph-name="z.sc" unicode="&#xf77a;" horiz-adv-x="463" 
d="M66 444h341l-270 -428h75c184 0 184 49 184 115h10v-131h-381l272 428h-72c-142 0 -147 -32 -149 -111h-10v127z" />
    <glyph glyph-name="tilde.sc" unicode="&#xf6fe;" 
d="M276 642h26c-15 -52 -48 -102 -108 -102c-27 0 -51 11 -74 24c-18 10 -42 24 -63 24c-28 0 -47 -22 -55 -48h-26c15 52 48 102 108 102c27 0 51 -11 74 -24c18 -10 42 -24 63 -24c28 0 47 22 55 48z" />
    <glyph glyph-name="exclamdown.sc" unicode="&#xf7a1;" horiz-adv-x="388" 
d="M202 292v-58c0 -88 9 -296 52 -404c-22 -29 -41 -68 -55 -102c-2 -5 -3 -8 -5 -8s-3 3 -5 8c-14 34 -33 73 -55 102c43 108 52 316 52 404v58h16zM194 350c-27 0 -51 23 -51 51s24 51 51 51c28 0 51 -23 51 -51s-23 -51 -51 -51z" />
    <glyph glyph-name="cent.oldstyle" unicode="&#xf7a2;" horiz-adv-x="556" 
d="M282 6v408c-79 -9 -98 -69 -98 -156v-87c0 -81 4 -157 98 -165zM282 -127v117c-119 7 -194 96 -194 203c0 122 87 224 194 237v73h16v-71h8c70 0 144 -31 144 -93c0 -30 -23 -50 -48 -50c-31 0 -48 22 -48 43c0 40 25 38 25 53c0 22 -46 31 -75 31h-6v-412
c103 0 147 76 154 137h16c-3 -76 -69 -153 -170 -153v-115h-16z" />
    <glyph glyph-name="lslash.sc" unicode="&#xf6f9;" horiz-adv-x="444" 
d="M96 16v191l-77 -44v16l77 44v205h-80v16h246v-16h-82v-158l121 69v-16l-121 -69v-238h97c99 0 129 37 129 133h16v-149h-406v16h80z" />
    <glyph glyph-name="scaron.sc" unicode="&#xf6fd;" horiz-adv-x="407" 
d="M56 0v163h16c8 -85 34 -155 136 -155c71 0 101 50 101 92c0 64 -38 71 -122 90c-62 14 -124 35 -124 135c0 57 32 127 123 127c63 0 95 -36 107 -36s11 17 11 28h16v-135h-16c-2 39 -11 127 -120 127c-51 0 -85 -31 -85 -83c0 -62 62 -68 125 -83
c64 -15 127 -39 127 -138c0 -80 -48 -140 -137 -140c-73 0 -112 33 -128 33c-6 0 -14 -3 -14 -13v-12h-16zM354 655l-122 -169h-56l-122 169h33l117 -106l117 106h33z" />
    <glyph glyph-name="zcaron.sc" unicode="&#xf6ff;" horiz-adv-x="463" 
d="M66 444h341l-270 -428h75c184 0 184 49 184 115h10v-131h-381l272 428h-72c-142 0 -147 -32 -149 -111h-10v127zM372 655l-122 -169h-56l-122 169h33l117 -106l117 106h33z" />
    <glyph glyph-name="dieresis.sc" unicode="&#xf7a8;" 
d="M233 626c24 0 45 -21 45 -45s-21 -45 -45 -45c-25 0 -45 21 -45 45s20 45 45 45zM45 626c24 0 45 -21 45 -45s-21 -45 -45 -45c-25 0 -45 21 -45 45s20 45 45 45z" />
    <glyph glyph-name="breve.sc" unicode="&#xf6f4;" 
d="M0 671h30c11 -65 44 -101 109 -101s98 36 109 101h30c-7 -89 -51 -155 -139 -155s-132 66 -139 155z" />
    <glyph glyph-name="caron.sc" unicode="&#xf6f5;" 
d="M289 685l-122 -169h-56l-122 169h33l117 -106l117 106h33z" />
    <glyph glyph-name="dotaccent.sc" unicode="&#xf6f7;" 
d="M139 626c24 0 45 -21 45 -45s-21 -45 -45 -45c-25 0 -45 21 -45 45s20 45 45 45z" />
    <glyph glyph-name="macron.sc" unicode="&#xf7af;" 
d="M6 557v48h266v-48h-266z" />
    <glyph glyph-name="ogonek.sc" unicode="&#xf6fb;" 
d="M165 -154l7 -14c-24 -21 -60 -46 -110 -46c-40 0 -66 26 -66 70c0 70 99 125 135 144h17c-29 -24 -86 -76 -86 -134c0 -30 23 -44 49 -44c22 0 40 11 54 24z" />
    <glyph glyph-name="ring.sc" unicode="&#xf6fc;" 
d="M139 705c50 0 90 -41 90 -90s-40 -90 -90 -90s-90 41 -90 90s40 90 90 90zM139 675c-33 0 -60 -28 -60 -60s27 -60 60 -60s60 28 60 60s-27 60 -60 60z" />
    <glyph glyph-name="cedilla.sc" unicode="&#xf7b8;" 
d="M145 0h24l-51 -84l2 -2c18 8 39 10 61 10c36 0 79 -23 79 -62c0 -60 -67 -78 -116 -78c-37 0 -71 10 -105 22l8 13c20 -7 37 -11 69 -11c41 -2 66 15 66 52c0 20 -12 40 -38 40c-13 0 -27 -2 -41 -6l-17 7z" />
    <glyph glyph-name="questiondown.sc" unicode="&#xf7bf;" horiz-adv-x="500" 
d="M304 291l13 3c10 -40 17 -81 17 -123c0 -176 -199 -192 -199 -326c0 -72 64 -109 128 -109c38 0 96 22 96 60c0 27 -66 2 -66 63c0 31 22 45 49 45c34 0 53 -37 53 -66c0 -68 -61 -118 -132 -118c-103 0 -158 71 -158 170c0 88 32 127 68 160c97 90 137 127 137 183
c0 28 -3 44 -6 58zM306 350c-27 0 -51 23 -51 51s24 51 51 51c28 0 51 -23 51 -51s-23 -51 -51 -51z" />
    <glyph glyph-name="one.superior" unicode="&#xb9;" horiz-adv-x="361" 
d="M161 294v330c0 8 0 14 -7 14c-9 0 -65 -25 -103 -44v10c43 23 104 58 146 94h36v-404h60v-10h-193v10h61z" />
    <glyph glyph-name="two.superior" unicode="&#xb2;" horiz-adv-x="361" 
d="M325 400l-16 -116h-289c43 113 224 153 224 310c0 58 -31 106 -91 106c-44 0 -97 -29 -97 -77c0 -14 7 -17 19 -17c18 0 33 -8 33 -27c0 -23 -16 -33 -37 -33c-27 0 -39 32 -39 54c0 77 66 110 138 110c81 0 146 -44 146 -122c0 -106 -132 -134 -239 -250h226l10 62h12z
" />
    <glyph glyph-name="three.superior" unicode="&#xb3;" horiz-adv-x="361" 
d="M74 515v10h49c72 0 116 6 116 94c0 50 -25 81 -78 81c-49 0 -85 -29 -85 -43c0 -2 0 -4 2 -4s5 1 10 1c17 0 34 -8 34 -29c0 -19 -18 -31 -38 -31s-32 18 -32 36c0 57 62 80 117 80c71 0 136 -29 136 -91c0 -75 -75 -91 -113 -98v-2c46 -3 133 -27 133 -116
c0 -82 -98 -125 -175 -125c-59 0 -128 21 -128 86c0 20 15 43 41 43c22 0 37 -14 37 -34c0 -21 -17 -32 -33 -32c-6 0 -10 2 -15 2c-4 0 -6 -3 -6 -6c0 -28 59 -49 95 -49c83 0 112 42 112 116c0 44 -16 111 -104 111h-75z" />
    <glyph glyph-name="agrave.sc" unicode="&#xf7e0;" horiz-adv-x="463" 
d="M235 452l171 -436h55v-16h-208v16h57l-50 129h-136l-37 -91c-3 -8 -6 -13 -6 -23c0 -13 14 -15 30 -15h28v-16h-137v16h22c24 0 38 15 50 45l156 391h5zM193 324l-64 -163h125zM276 486l-145 90c-26 17 -40 25 -40 45s18 34 32 34c18 0 29 -11 43 -25l145 -144h-35z" />
    <glyph glyph-name="aacute.sc" unicode="&#xf7e1;" horiz-adv-x="463" 
d="M235 452l171 -436h55v-16h-208v16h57l-50 129h-136l-37 -91c-3 -8 -6 -13 -6 -23c0 -13 14 -15 30 -15h28v-16h-137v16h22c24 0 38 15 50 45l156 391h5zM193 324l-64 -163h125zM153 486l145 144c14 14 25 25 43 25c14 0 32 -14 32 -34s-14 -28 -40 -45l-145 -90h-35z" />
    <glyph glyph-name="acircumflex.sc" unicode="&#xf7e2;" horiz-adv-x="463" 
d="M235 452l171 -436h55v-16h-208v16h57l-50 129h-136l-37 -91c-3 -8 -6 -13 -6 -23c0 -13 14 -15 30 -15h28v-16h-137v16h22c24 0 38 15 50 45l156 391h5zM193 324l-64 -163h125zM82 486l122 169h56l122 -169h-33l-117 106l-117 -106h-33z" />
    <glyph glyph-name="atilde.sc" unicode="&#xf7e3;" horiz-adv-x="463" 
d="M235 452l171 -436h55v-16h-208v16h57l-50 129h-136l-37 -91c-3 -8 -6 -13 -6 -23c0 -13 14 -15 30 -15h28v-16h-137v16h22c24 0 38 15 50 45l156 391h5zM193 324l-64 -163h125zM369 612h26c-15 -52 -48 -102 -108 -102c-27 0 -51 11 -74 24c-18 10 -42 24 -63 24
c-28 0 -47 -22 -55 -48h-26c15 52 48 102 108 102c27 0 51 -11 74 -24c18 -10 42 -24 63 -24c28 0 47 22 55 48z" />
    <glyph glyph-name="adieresis.sc" unicode="&#xf7e4;" horiz-adv-x="463" 
d="M235 452l171 -436h55v-16h-208v16h57l-50 129h-136l-37 -91c-3 -8 -6 -13 -6 -23c0 -13 14 -15 30 -15h28v-16h-137v16h22c24 0 38 15 50 45l156 391h5zM193 324l-64 -163h125zM326 596c24 0 45 -21 45 -45s-21 -45 -45 -45c-25 0 -45 21 -45 45s20 45 45 45zM138 596
c24 0 45 -21 45 -45s-21 -45 -45 -45c-25 0 -45 21 -45 45s20 45 45 45z" />
    <glyph glyph-name="aring.sc" unicode="&#xf7e5;" horiz-adv-x="463" 
d="M235 452l171 -436h55v-16h-208v16h57l-50 129h-136l-37 -91c-3 -8 -6 -13 -6 -23c0 -13 14 -15 30 -15h28v-16h-137v16h22c24 0 38 15 50 45l156 391h5zM193 324l-64 -163h125zM232 655c50 0 90 -41 90 -90s-40 -90 -90 -90s-90 41 -90 90s40 90 90 90zM232 625
c-33 0 -60 -28 -60 -60s27 -60 60 -60s60 28 60 60s-27 60 -60 60z" />
    <glyph glyph-name="ae.sc" unicode="&#xf7e6;" horiz-adv-x="648" 
d="M281 175v245h-2l-142 -245h144zM53 65l216 363h-84v16h385l12 -113h-16c-5 71 -34 97 -106 97h-95v-193h37c65 0 72 12 74 78h16v-172h-16c-2 66 -9 78 -74 78h-37v-203h113c71 0 112 37 112 118h16v-134h-405v16h80v143h-154l-61 -105c-4 -8 -10 -17 -10 -26
c0 -12 18 -12 42 -12h22v-16h-162v16h15c51 0 63 21 80 49z" />
    <glyph glyph-name="ccedilla.sc" unicode="&#xf7e7;" horiz-adv-x="463" 
d="M409 432v-134h-9c-12 71 -56 141 -142 138c-98 0 -122 -106 -122 -214s24 -214 120 -214c84 0 137 69 143 156h10v-156h-10c-3 16 -5 32 -21 32c-15 0 -49 -46 -114 -48l-46 -76l2 -2c18 8 39 10 61 10c36 0 79 -23 79 -62c0 -60 -67 -78 -116 -78c-37 0 -71 10 -105 22
l8 13c20 -7 37 -11 69 -11c41 -2 66 15 66 52c0 20 -12 40 -38 40c-13 0 -27 -2 -41 -6l-17 7l54 91c-121 11 -200 114 -200 230c0 114 79 230 220 230c65 0 103 -46 118 -46s19 16 21 26h10z" />
    <glyph glyph-name="egrave.sc" unicode="&#xf7e8;" horiz-adv-x="463" 
d="M96 16v412h-72v16h361l12 -113h-16c-5 71 -34 97 -106 97h-95v-193h37c65 0 72 12 74 78h16v-172h-16c-2 66 -9 78 -74 78h-37v-203h113c71 0 112 37 112 118h16v-134h-397v16h72zM276 486l-145 90c-26 17 -40 25 -40 45s18 34 32 34c18 0 29 -11 43 -25l145 -144h-35z
" />
    <glyph glyph-name="eacute.sc" unicode="&#xf7e9;" horiz-adv-x="463" 
d="M96 16v412h-72v16h361l12 -113h-16c-5 71 -34 97 -106 97h-95v-193h37c65 0 72 12 74 78h16v-172h-16c-2 66 -9 78 -74 78h-37v-203h113c71 0 112 37 112 118h16v-134h-397v16h72zM153 486l145 144c14 14 25 25 43 25c14 0 32 -14 32 -34s-14 -28 -40 -45l-145 -90h-35z
" />
    <glyph glyph-name="ecircumflex.sc" unicode="&#xf7ea;" horiz-adv-x="463" 
d="M96 16v412h-72v16h361l12 -113h-16c-5 71 -34 97 -106 97h-95v-193h37c65 0 72 12 74 78h16v-172h-16c-2 66 -9 78 -74 78h-37v-203h113c71 0 112 37 112 118h16v-134h-397v16h72zM82 486l122 169h56l122 -169h-33l-117 106l-117 -106h-33z" />
    <glyph glyph-name="edieresis.sc" unicode="&#xf7eb;" horiz-adv-x="463" 
d="M96 16v412h-72v16h361l12 -113h-16c-5 71 -34 97 -106 97h-95v-193h37c65 0 72 12 74 78h16v-172h-16c-2 66 -9 78 -74 78h-37v-203h113c71 0 112 37 112 118h16v-134h-397v16h72zM326 596c24 0 45 -21 45 -45s-21 -45 -45 -45c-25 0 -45 21 -45 45s20 45 45 45zM138 596
c24 0 45 -21 45 -45s-21 -45 -45 -45c-25 0 -45 21 -45 45s20 45 45 45z" />
    <glyph glyph-name="igrave.sc" unicode="&#xf7ec;" 
d="M97 16v412h-73v16h230v-16h-73v-412h73v-16h-230v16h73zM183 486l-145 90c-26 17 -40 25 -40 45s18 34 32 34c18 0 29 -11 43 -25l145 -144h-35z" />
    <glyph glyph-name="iacute.sc" unicode="&#xf7ed;" 
d="M97 16v412h-73v16h230v-16h-73v-412h73v-16h-230v16h73zM72 486l145 144c14 14 25 25 43 25c14 0 32 -14 32 -34s-14 -28 -40 -45l-145 -90h-35z" />
    <glyph glyph-name="icircumflex.sc" unicode="&#xf7ee;" 
d="M97 16v412h-73v16h230v-16h-73v-412h73v-16h-230v16h73zM-11 486l122 169h56l122 -169h-33l-117 106l-117 -106h-33z" />
    <glyph glyph-name="idieresis.sc" unicode="&#xf7ef;" 
d="M97 16v412h-73v16h230v-16h-73v-412h73v-16h-230v16h73zM233 596c24 0 45 -21 45 -45s-21 -45 -45 -45c-25 0 -45 21 -45 45s20 45 45 45zM45 596c24 0 45 -21 45 -45s-21 -45 -45 -45c-25 0 -45 21 -45 45s20 45 45 45z" />
    <glyph glyph-name="eth.sc" unicode="&#xf7f0;" horiz-adv-x="519" 
d="M96 16v213h-62v16h62v183h-72v16h226c227 -2 227 -205 227 -222c0 -90 -44 -222 -238 -222h-215v16h72zM180 428v-183h97v-16h-97v-213c102 0 201 0 201 212c0 199 -119 200 -201 200z" />
    <glyph glyph-name="ntilde.sc" unicode="&#xf7f1;" horiz-adv-x="519" 
d="M90 428h-74v16h172l223 -303h2v246c0 23 -6 41 -42 41h-30v16h162v-16h-32c-36 0 -42 -18 -42 -41v-387h-12l-309 409h-2v-352c0 -23 6 -41 42 -41h34v-16h-166v16h32c36 0 42 18 42 41v371zM397 612h26c-15 -52 -48 -102 -108 -102c-27 0 -51 11 -74 24
c-18 10 -42 24 -63 24c-28 0 -47 -22 -55 -48h-26c15 52 48 102 108 102c27 0 51 -11 74 -24c18 -10 42 -24 63 -24c28 0 47 22 55 48z" />
    <glyph glyph-name="ograve.sc" unicode="&#xf7f2;" horiz-adv-x="519" 
d="M40 222c0 114 79 230 220 230c140 0 219 -116 219 -230c0 -122 -88 -230 -219 -230c-132 0 -220 108 -220 230zM260 436c-100 0 -124 -106 -124 -214s24 -214 124 -214c99 0 123 106 123 214s-24 214 -123 214zM304 486l-145 90c-26 17 -40 25 -40 45s18 34 32 34
c18 0 29 -11 43 -25l145 -144h-35z" />
    <glyph glyph-name="oacute.sc" unicode="&#xf7f3;" horiz-adv-x="519" 
d="M40 222c0 114 79 230 220 230c140 0 219 -116 219 -230c0 -122 -88 -230 -219 -230c-132 0 -220 108 -220 230zM260 436c-100 0 -124 -106 -124 -214s24 -214 124 -214c99 0 123 106 123 214s-24 214 -123 214zM181 486l145 144c14 14 25 25 43 25c14 0 32 -14 32 -34
s-14 -28 -40 -45l-145 -90h-35z" />
    <glyph glyph-name="ocircumflex.sc" unicode="&#xf7f4;" horiz-adv-x="519" 
d="M40 222c0 114 79 230 220 230c140 0 219 -116 219 -230c0 -122 -88 -230 -219 -230c-132 0 -220 108 -220 230zM260 436c-100 0 -124 -106 -124 -214s24 -214 124 -214c99 0 123 106 123 214s-24 214 -123 214zM110 486l122 169h56l122 -169h-33l-117 106l-117 -106h-33z
" />
    <glyph glyph-name="otilde.sc" unicode="&#xf7f5;" horiz-adv-x="519" 
d="M40 222c0 114 79 230 220 230c140 0 219 -116 219 -230c0 -122 -88 -230 -219 -230c-132 0 -220 108 -220 230zM260 436c-100 0 -124 -106 -124 -214s24 -214 124 -214c99 0 123 106 123 214s-24 214 -123 214zM397 612h26c-15 -52 -48 -102 -108 -102
c-27 0 -51 11 -74 24c-18 10 -42 24 -63 24c-28 0 -47 -22 -55 -48h-26c15 52 48 102 108 102c27 0 51 -11 74 -24c18 -10 42 -24 63 -24c28 0 47 22 55 48z" />
    <glyph glyph-name="odieresis.sc" unicode="&#xf7f6;" horiz-adv-x="519" 
d="M40 222c0 114 79 230 220 230c140 0 219 -116 219 -230c0 -122 -88 -230 -219 -230c-132 0 -220 108 -220 230zM260 436c-100 0 -124 -106 -124 -214s24 -214 124 -214c99 0 123 106 123 214s-24 214 -123 214zM354 596c24 0 45 -21 45 -45s-21 -45 -45 -45
c-25 0 -45 21 -45 45s20 45 45 45zM166 596c24 0 45 -21 45 -45s-21 -45 -45 -45c-25 0 -45 21 -45 45s20 45 45 45z" />
    <glyph glyph-name="oe.sc" unicode="&#xf6fa;" horiz-adv-x="704" 
d="M337 16v412c-18 3 -50 8 -77 8c-100 0 -124 -106 -124 -214s24 -214 124 -214c27 0 59 5 77 8zM421 428v-193h37c65 0 72 12 74 78h16v-172h-16c-2 66 -9 78 -74 78h-37v-203h113c71 0 112 37 112 118h16v-134h-299c-21 0 -37 -2 -53 -4s-32 -4 -50 -4
c-132 0 -220 108 -220 230c0 114 79 230 220 230c18 0 34 -2 50 -4s32 -4 53 -4h263l12 -113h-16c-5 71 -34 97 -106 97h-95z" />
    <glyph glyph-name="oslash.sc" unicode="&#xf7f8;" horiz-adv-x="519" 
d="M150 104l214 250c-16 49 -49 82 -104 82c-100 0 -124 -106 -124 -214c0 -41 4 -82 14 -118zM369 340l-213 -250c16 -49 48 -82 104 -82c99 0 123 106 123 214c0 41 -4 82 -14 118zM61 0l47 55c-43 41 -68 102 -68 167c0 114 79 230 220 230c60 0 107 -21 142 -53l45 53
l11 -8l-46 -54c44 -45 67 -107 67 -168c0 -122 -88 -230 -219 -230c-57 0 -105 20 -142 54l-46 -54z" />
    <glyph glyph-name="ugrave.sc" unicode="&#xf7f9;" horiz-adv-x="519" 
d="M9 428v16h243v-16h-80v-290c0 -92 44 -130 113 -130s128 34 128 118v261c0 23 -6 41 -42 41h-45v16h177v-16h-32c-36 0 -42 -18 -42 -41v-254c0 -119 -89 -141 -164 -141c-177 0 -177 86 -177 139v297h-79zM304 486l-145 90c-26 17 -40 25 -40 45s18 34 32 34
c18 0 29 -11 43 -25l145 -144h-35z" />
    <glyph glyph-name="uacute.sc" unicode="&#xf7fa;" horiz-adv-x="519" 
d="M9 428v16h243v-16h-80v-290c0 -92 44 -130 113 -130s128 34 128 118v261c0 23 -6 41 -42 41h-45v16h177v-16h-32c-36 0 -42 -18 -42 -41v-254c0 -119 -89 -141 -164 -141c-177 0 -177 86 -177 139v297h-79zM206 486l145 144c14 14 25 25 43 25c14 0 32 -14 32 -34
s-14 -28 -40 -45l-145 -90h-35z" />
    <glyph glyph-name="ucircumflex.sc" unicode="&#xf7fb;" horiz-adv-x="519" 
d="M9 428v16h243v-16h-80v-290c0 -92 44 -130 113 -130s128 34 128 118v261c0 23 -6 41 -42 41h-45v16h177v-16h-32c-36 0 -42 -18 -42 -41v-254c0 -119 -89 -141 -164 -141c-177 0 -177 86 -177 139v297h-79zM110 486l122 169h56l122 -169h-33l-117 106l-117 -106h-33z" />
    <glyph glyph-name="udieresis.sc" unicode="&#xf7fc;" horiz-adv-x="519" 
d="M9 428v16h243v-16h-80v-290c0 -92 44 -130 113 -130s128 34 128 118v261c0 23 -6 41 -42 41h-45v16h177v-16h-32c-36 0 -42 -18 -42 -41v-254c0 -119 -89 -141 -164 -141c-177 0 -177 86 -177 139v297h-79zM360 596c24 0 45 -21 45 -45s-21 -45 -45 -45
c-25 0 -45 21 -45 45s20 45 45 45zM172 596c24 0 45 -21 45 -45s-21 -45 -45 -45c-25 0 -45 21 -45 45s20 45 45 45z" />
    <glyph glyph-name="yacute.sc" unicode="&#xf7fd;" horiz-adv-x="444" 
d="M184 16v161l-133 251h-56v16h210v-16h-52l111 -223l97 185c5 11 7 19 7 25c0 9 -4 13 -30 13h-15v16h126v-16h-28c-24 0 -33 -18 -45 -41l-108 -204v-167h83v-16h-250v16h83zM168 486l145 144c14 14 25 25 43 25c14 0 32 -14 32 -34s-14 -28 -40 -45l-145 -90h-35z" />
    <glyph glyph-name="thorn.sc" unicode="&#xf7fe;" horiz-adv-x="444" 
d="M96 16v412h-80v16h247v-16h-83v-64h78c81 0 154 -35 154 -126c0 -87 -87 -126 -163 -126c-26 0 -43 5 -69 14v-110h83v-16h-247v16h80zM180 348v-206c19 -7 37 -14 60 -14c63 0 82 54 82 110c0 64 -15 110 -88 110h-54z" />
    <glyph glyph-name="ydieresis.sc" unicode="&#xf7ff;" horiz-adv-x="444" 
d="M184 16v161l-133 251h-56v16h210v-16h-52l111 -223l97 185c5 11 7 19 7 25c0 9 -4 13 -30 13h-15v16h126v-16h-28c-24 0 -33 -18 -45 -41l-108 -204v-167h83v-16h-250v16h83zM326 596c24 0 45 -21 45 -45s-21 -45 -45 -45c-25 0 -45 21 -45 45s20 45 45 45zM138 596
c24 0 45 -21 45 -45s-21 -45 -45 -45c-25 0 -45 21 -45 45s20 45 45 45z" />
    <glyph glyph-name="Delta" unicode="&#x2206;" horiz-adv-x="632" 
d="M597 0h-562v24l258 671l38 11l266 -682v-24zM492 46l-204 533l-200 -533h404z" />
    <glyph glyph-name="Omega" unicode="&#x2126;" horiz-adv-x="727" 
d="M693 142l-25 -142h-235l-6 19c43 84 131 217 130 364c-1 216 -97 293 -195 293c-106 0 -192 -79 -192 -298c0 -142 74 -264 128 -359l-8 -19h-233l-23 142l24 2c21 -66 37 -77 77 -77h105c-63 56 -168 156 -168 318c0 197 129 321 293 321c167 0 289 -117 289 -312
c0 -146 -98 -253 -172 -327h110c42 0 53 8 75 77z" />
    <glyph glyph-name="uni03BC" unicode="&#x3bc;" horiz-adv-x="556" 
d="M459 432v-416h80v-16h-164v91h-2c-9 -23 -51 -103 -140 -103c-23 0 -44 5 -68 23c0 -73 14 -162 14 -232c0 -33 -14 -49 -45 -49s-45 16 -45 49c0 57 8 104 8 205v410h-80v16h80c32 0 64 2 84 22v-358c0 -43 24 -70 62 -70c70 0 132 79 132 153v237h-79v16h79
c32 0 64 2 84 22z" />
    <glyph glyph-name="pi" unicode="&#x3c0;" horiz-adv-x="564" 
d="M512 477l24 -9c-8 -38 -23 -70 -36 -88c-16 -4 -40 -4 -68 -4c-6 -62 -5 -168 -5 -238c0 -61 12 -93 44 -93c21 0 33 11 51 31l13 -20c-26 -47 -66 -68 -103 -68c-51 0 -88 27 -88 129c0 93 5 180 11 261c-59 1 -118 2 -158 2v-19c0 -231 -52 -338 -66 -356
c-17 -7 -43 -16 -59 -17l-7 17c75 93 94 272 94 376c-67 1 -93 -19 -129 -46l-14 22c29 35 66 91 169 90c73 0 170 -3 267 -3c31 0 43 5 60 33z" />
    <glyph glyph-name="Euro" unicode="&#x20ac;" horiz-adv-x="556" 
d="M512 570h-21c-9 68 -62 99 -132 99c-120 0 -163 -96 -177 -250h276l-15 -37h-262c-1 -10 -1 -23 -1 -32v-34h236l-16 -37h-218c10 -161 71 -251 177 -251c62 0 121 27 132 101h21l-6 -80c-27 -34 -73 -60 -166 -60c-155 0 -236 100 -251 290h-69l15 37h50
c-1 9 -1 26 -1 35c0 8 0 22 1 31h-65l15 37h53c18 185 83 291 252 291c99 0 144 -31 166 -58z" />
    <glyph glyph-name="afii61289" unicode="&#x2113;" horiz-adv-x="408" 
d="M372 118l19 -17c-38 -72 -92 -111 -164 -111c-47 0 -80 14 -101 39c-23 29 -34 63 -34 147v84l-60 -46l-12 24l72 58v130c0 165 9 219 52 270c25 32 54 47 86 47c60 0 90 -61 90 -133c0 -120 -64 -213 -147 -298v-95c0 -134 32 -172 89 -172c47 0 83 33 110 73zM173 486
v-129c55 67 96 162 96 252c0 59 -16 104 -47 104c-37 0 -49 -60 -49 -227z" />
    <glyph glyph-name="estimated" unicode="&#x212e;" horiz-adv-x="869" 
d="M835 338h-649c-3 0 -5 -1 -5 -4v-196c0 -9 3 -16 8 -23c63 -65 150 -106 246 -106c103 0 195 47 258 119h57c-71 -84 -187 -139 -316 -139c-221 0 -400 161 -400 359c0 199 179 360 400 360s401 -161 401 -360v-10zM687 364v197c0 9 -3 17 -9 24
c-63 62 -148 102 -243 102s-182 -41 -245 -105c-6 -7 -9 -15 -9 -25v-193c0 -2 2 -6 5 -6h497c3 0 4 4 4 6z" />
    <glyph glyph-name="partialdiff" unicode="&#x2202;" horiz-adv-x="529" 
d="M262 435h1c46 0 102 -21 135 -71c4 33 8 69 9 108c1 51 -6 107 -27 160c-20 47 -69 98 -132 98c-53 0 -101 -27 -137 -57c-16 -2 -39 39 -30 61c35 23 82 42 141 42c95 0 159 -54 205 -143c40 -77 50 -174 50 -234c0 -76 -13 -178 -48 -254c-42 -92 -108 -155 -203 -155
c-110 0 -183 76 -183 203c0 69 27 129 59 167c36 43 97 75 160 75zM283 396h-1c-41 0 -78 -15 -109 -59c-31 -48 -45 -118 -45 -187c-1 -71 36 -129 97 -129c55 0 93 54 116 106c28 61 39 114 50 195c-13 28 -54 74 -108 74z" />
    <glyph glyph-name="product" unicode="&#x220f;" horiz-adv-x="683" 
d="M654 698v-26c-86 -7 -90 -13 -90 -70v-584c0 -65 6 -73 88 -79v-26h-256v26c78 5 84 10 84 79v614c0 29 -6 33 -36 33h-208c-29 0 -34 -4 -34 -29v-618c0 -64 0 -72 76 -79v-26h-248v26c80 6 88 12 88 79v584c0 58 -6 63 -91 70v26h627z" />
    <glyph glyph-name="summation" unicode="&#x2211;" horiz-adv-x="552" 
d="M528 97l-43 -187h-457v23l225 350l-219 391v24h451c1 -19 8 -97 12 -162l-26 -5c-9 48 -20 81 -33 102c-13 24 -29 32 -104 32h-194l187 -326l-224 -355h259c86 0 98 5 139 120z" />
    <glyph glyph-name="uni2219" unicode="&#x2219;" 
d="M139 260c-28 0 -51 23 -51 51s23 51 51 51c27 0 51 -23 51 -51s-24 -51 -51 -51z" />
    <glyph glyph-name="radical" unicode="&#x221a;" horiz-adv-x="549" 
d="M532 893l-166 -1041l-20 -11l-217 554l-87 -42l-11 32l154 73l169 -445h2l137 890z" />
    <glyph glyph-name="infinity" unicode="&#x221e;" horiz-adv-x="754" 
d="M705 289v-1c0 -98 -73 -159 -150 -159c-60 0 -110 34 -177 114c-51 -60 -104 -114 -182 -114c-80 0 -148 65 -148 155c0 92 66 158 155 158c73 0 127 -51 178 -113c47 52 96 113 180 113s144 -62 144 -153zM202 182h2c59 0 105 57 144 100c-42 53 -83 109 -150 109
c-60 0 -95 -49 -95 -108c0 -56 41 -101 99 -101zM555 391h-1c-63 0 -112 -69 -145 -104c62 -72 97 -105 148 -105c60 0 93 54 93 102c0 66 -40 107 -95 107z" />
    <glyph glyph-name="integral" unicode="&#x222b;" horiz-adv-x="373" 
d="M161 15l-20 414c-16 346 68 420 152 420c25 0 59 -15 60 -46c0 -28 -21 -42 -43 -42c-33 0 -30 45 -53 45c-21 0 -48 -31 -42 -169l18 -386c18 -364 -64 -449 -152 -449c-36 0 -60 22 -60 47c-1 27 23 46 50 46s27 -48 49 -48c31 0 46 66 41 168z" />
    <glyph glyph-name="approxequal" unicode="&#x2248;" horiz-adv-x="540" 
d="M461 432l36 -31c-27 -53 -69 -95 -128 -95c-39 0 -66 14 -111 40c-29 17 -55 32 -87 32c-44 0 -70 -33 -94 -71l-37 30c29 57 79 95 137 95c47 0 80 -23 106 -38c34 -19 56 -34 88 -34c38 0 63 26 90 72zM461 263l36 -32c-28 -53 -69 -95 -128 -95c-39 0 -67 15 -111 40
c-29 18 -56 33 -87 33c-45 0 -71 -35 -94 -72l-37 30c29 58 80 96 137 96c48 0 80 -24 106 -38c31 -18 54 -35 88 -35c39 0 62 27 90 73z" />
    <glyph glyph-name="notequal" unicode="&#x2260;" horiz-adv-x="540" 
d="M387 498l-41 -91h144v-56h-166l-62 -138h228v-55h-250l-51 -112l-43 19l42 93h-140v55h162l62 138h-224v56h245l50 110z" />
    <glyph glyph-name="lessequal" unicode="&#x2264;" horiz-adv-x="540" 
d="M488 101l-434 219v59l434 218v-65l-376 -181v-2l376 -183v-65zM491 5h-442v57h442v-57z" />
    <glyph glyph-name="greaterequal" unicode="&#x2265;" horiz-adv-x="540" 
d="M55 597l434 -219v-58l-434 -219v65l376 182v2l-376 182v65zM490 5h-440v57h440v-57z" />
    <glyph glyph-name="lozenge" unicode="&#x25ca;" horiz-adv-x="557" 
d="M508 336l-197 -406h-66l-196 406l198 409h64zM445 336l-164 348h-4l-165 -346l166 -348h2z" />
    <glyph glyph-name="uni00A0" unicode="&#xa0;" 
 />
    <glyph glyph-name="uni00AD" unicode="&#xad;" horiz-adv-x="389" 
d="M65 211l16 60c85 -3 164 -3 243 0l-16 -60c-80 3 -162 3 -243 0z" />
    <glyph glyph-name="uni02C9" unicode="&#x2c9;" 
d="M6 557v48h266v-48h-266z" />
    <glyph glyph-name="zero.taboldstyle" unicode="&#xf643;" horiz-adv-x="556" 
d="M154 226c0 -113 40 -216 150 -216c78 0 164 67 164 216c0 126 -69 216 -167 216c-39 0 -147 -20 -147 -216zM64 226c0 140 92 240 221 240c164 0 207 -141 207 -240c0 -127 -67 -240 -204 -240s-224 96 -224 240z" />
    <glyph glyph-name="one.taboldstyle" unicode="&#xf644;" horiz-adv-x="556" 
d="M155 0v16h81v420h-81v16h246v-16h-81v-420h81v-16h-246z" />
    <glyph glyph-name="two.taboldstyle" unicode="&#xf645;" horiz-adv-x="556" 
d="M84 0v57c210 85 262 142 262 254c0 79 -18 139 -110 139c-64 0 -103 -44 -103 -56c0 -15 12 -17 29 -20c19 -3 37 -15 37 -44c0 -23 -22 -46 -52 -46c-35 0 -56 28 -56 54c0 93 97 128 173 128c117 0 172 -75 172 -146c0 -92 -80 -144 -150 -181l-122 -65v-2h277l15 102
h16l-25 -174h-363z" />
    <glyph glyph-name="three.taboldstyle" unicode="&#xf646;" horiz-adv-x="556" 
d="M166 163h33c108 0 179 29 179 147c0 75 -27 140 -112 140c-72 0 -120 -48 -120 -66c0 -10 15 -11 33 -14c19 -3 33 -16 33 -42c0 -24 -15 -48 -44 -48c-35 0 -52 28 -52 56c0 89 81 130 160 130c107 0 186 -64 186 -155c0 -136 -146 -151 -188 -155v-2
c195 -16 217 -140 217 -194c0 -139 -133 -208 -250 -208c-103 0 -176 59 -176 138c0 37 22 71 62 71c31 0 55 -23 55 -51c0 -31 -13 -48 -39 -48c-8 0 -15 3 -28 3c-17 0 -20 -10 -20 -18c0 -29 50 -79 144 -79c122 0 162 85 162 196c0 183 -146 183 -201 183h-34v16z" />
    <glyph glyph-name="four.taboldstyle" unicode="&#xf647;" horiz-adv-x="556" 
d="M300 -228v228h-284l350 478h20l-304 -418h218v258h84v-258h98v-60h-98v-228h-84z" />
    <glyph glyph-name="five.taboldstyle" unicode="&#xf648;" horiz-adv-x="556" 
d="M404 477h16c0 -98 -61 -99 -91 -99c-36 0 -95 16 -125 16c-35 0 -62 -11 -62 -20c0 -18 5 -52 5 -83c0 -62 -7 -99 -15 -137c31 22 65 36 127 36c152 0 232 -112 232 -207c0 -155 -115 -231 -259 -231c-101 0 -167 63 -167 134c0 48 35 71 64 71c19 0 50 -8 50 -46
c0 -19 -13 -44 -39 -44c-12 0 -20 3 -27 3c-11 0 -14 -6 -14 -18c0 -35 46 -84 130 -84c134 0 172 109 172 202c0 127 -66 204 -156 204c-65 0 -101 -25 -122 -45l-11 7c14 55 19 85 19 144c0 84 -12 137 -19 164c19 12 54 22 96 22c36 0 74 -6 106 -12c32 -7 57 -10 65 -10
c23 0 25 22 25 33z" />
    <glyph glyph-name="six.taboldstyle" unicode="&#xf649;" horiz-adv-x="556" 
d="M413 230c0 82 -21 194 -126 194c-45 0 -144 -30 -144 -180c0 -93 9 -242 135 -242c124 0 135 134 135 228zM461 714v-16c-245 -53 -299 -184 -312 -346h2c17 27 55 88 152 88c131 0 200 -101 200 -212c0 -128 -90 -242 -225 -242c-148 0 -225 132 -225 270
c0 375 380 458 408 458z" />
    <glyph glyph-name="seven.taboldstyle" unicode="&#xf64a;" horiz-adv-x="556" 
d="M65 284l22 168h423l-13 -25c-46 -88 -249 -516 -249 -580c0 -7 5 -11 11 -11c11 0 14 6 27 6c21 0 40 -16 40 -42c0 -31 -20 -48 -48 -48c-38 0 -54 32 -54 69c0 22 6 62 27 115l172 438h-323l-19 -90h-16z" />
    <glyph glyph-name="eight.taboldstyle" unicode="&#xf64b;" horiz-adv-x="556" 
d="M45 160c0 120 114 179 210 206v2c-91 23 -176 69 -176 161c0 97 82 171 199 171s199 -74 199 -171c0 -92 -85 -138 -176 -161v-2c96 -27 210 -86 210 -206c0 -118 -117 -174 -233 -174s-233 56 -233 174zM141 167c0 -85 41 -165 137 -165s137 80 137 165
c0 123 -59 173 -137 190c-78 -17 -137 -67 -137 -190zM163 541c0 -95 41 -151 115 -168c74 17 115 73 115 168c0 75 -33 143 -115 143s-115 -68 -115 -143z" />
    <glyph glyph-name="nine.taboldstyle" unicode="&#xf64c;" horiz-adv-x="556" 
d="M143 222c0 -82 21 -194 126 -194c45 0 144 30 144 180c0 93 -9 242 -135 242c-124 0 -135 -134 -135 -228zM95 -262v16c245 53 299 184 312 346h-2c-17 -27 -55 -88 -152 -88c-131 0 -200 101 -200 212c0 128 90 242 225 242c148 0 225 -132 225 -270
c0 -375 -380 -458 -408 -458z" />
    <glyph glyph-name="dollar.taboldstyle" unicode="&#xf653;" horiz-adv-x="556" 
d="M273 305v-299c5 -2 11 -2 16 -2c96 0 165 60 165 148c0 128 -89 139 -181 153zM257 420v273c-4 1 -8 1 -11 1c-91 0 -150 -55 -150 -143c0 -97 74 -117 161 -131zM257 -159v149c-82 7 -129 49 -162 49c-24 0 -25 -25 -25 -41h-16v248h16c0 -150 82 -227 187 -239v301
c-100 14 -197 39 -197 209c0 109 69 193 187 193c3 0 7 0 10 -1v65h16v-66c80 -9 120 -58 144 -58c26 0 29 25 32 37h16v-206h-16c-8 108 -65 199 -176 211v-275c108 -19 229 -47 229 -212c0 -117 -72 -217 -217 -217c-4 0 -8 0 -12 1v-148h-16z" />
    <glyph glyph-name="cent.taboldstyle" unicode="&#xf654;" horiz-adv-x="556" 
d="M282 6v408c-79 -9 -98 -69 -98 -156v-87c0 -81 4 -157 98 -165zM282 -127v117c-119 7 -194 96 -194 203c0 122 87 224 194 237v73h16v-71h8c70 0 144 -31 144 -93c0 -30 -23 -50 -48 -50c-31 0 -48 22 -48 43c0 40 25 38 25 53c0 22 -46 31 -75 31h-6v-412
c103 0 147 76 154 137h16c-3 -76 -69 -153 -170 -153v-115h-16z" />
    <glyph glyph-name="f_i.sc" unicode="&#xe03d;" horiz-adv-x="704" 
d="M96 16v412h-72v16h362l16 -119h-16c-8 82 -41 103 -121 103h-85v-193h37c65 0 72 12 74 78h16v-172h-16c-2 66 -9 78 -74 78h-37v-203h84v-16h-240v16h72zM523 16v412h-73v16h230v-16h-73v-412h73v-16h-230v16h73z" />
    <glyph glyph-name="f_l.sc" unicode="&#xe03e;" horiz-adv-x="870" 
d="M96 16v412h-72v16h362l16 -119h-16c-8 82 -41 103 -121 103h-85v-193h37c65 0 72 12 74 78h16v-172h-16c-2 66 -9 78 -74 78h-37v-203h84v-16h-240v16h72zM522 16v412h-80v16h246v-16h-82v-412h97c99 0 129 37 129 133h16v-149h-406v16h80z" />
    <glyph glyph-name="germandbls.sc" unicode="&#xe03f;" horiz-adv-x="814" 
d="M56 0v163h16c8 -85 34 -155 136 -155c71 0 101 50 101 92c0 64 -38 71 -122 90c-62 14 -124 35 -124 135c0 57 32 127 123 127c63 0 95 -36 107 -36s11 17 11 28h16v-135h-16c-2 39 -11 127 -120 127c-51 0 -85 -31 -85 -83c0 -62 62 -68 125 -83
c64 -15 127 -39 127 -138c0 -80 -48 -140 -137 -140c-73 0 -112 33 -128 33c-6 0 -14 -3 -14 -13v-12h-16zM463 0v163h16c8 -85 34 -155 136 -155c71 0 101 50 101 92c0 64 -38 71 -122 90c-62 14 -124 35 -124 135c0 57 32 127 123 127c63 0 95 -36 107 -36s11 17 11 28h16
v-135h-16c-2 39 -11 127 -120 127c-51 0 -85 -31 -85 -83c0 -62 62 -68 125 -83c64 -15 127 -39 127 -138c0 -80 -48 -140 -137 -140c-73 0 -112 33 -128 33c-6 0 -14 -3 -14 -13v-12h-16z" />
    <glyph glyph-name="uni2215" unicode="&#x2215;" horiz-adv-x="168" 
d="M-170 -22l463 742h45l-463 -742h-45z" />
    <glyph glyph-name="A.sc" unicode="&#xe000;" horiz-adv-x="463" 
d="M235 452l171 -436h55v-16h-208v16h57l-50 129h-136l-37 -91c-3 -8 -6 -13 -6 -23c0 -13 14 -15 30 -15h28v-16h-137v16h22c24 0 38 15 50 45l156 391h5zM193 324l-64 -163h125z" />
    <glyph glyph-name="B.sc" unicode="&#xe008;" horiz-adv-x="463" 
d="M180 428v-184h37c53 0 93 18 93 88c0 31 -1 96 -96 96h-34zM96 16v412h-72v16h204c74 0 166 -7 166 -101c0 -92 -117 -106 -145 -106v-2c70 -5 158 -32 158 -117c0 -98 -100 -118 -180 -118h-203v16h72zM180 228v-212h37c34 0 100 2 100 111c0 98 -67 100 -99 101h-38z
" />
    <glyph glyph-name="C.sc" unicode="&#xe009;" horiz-adv-x="463" 
d="M409 432v-134h-9c-12 71 -56 141 -142 138c-98 0 -122 -106 -122 -214s24 -214 120 -214c84 0 137 69 143 156h10v-156h-10c-3 16 -5 32 -21 32c-15 0 -50 -48 -118 -48c-132 0 -220 108 -220 230c0 114 79 230 220 230c65 0 103 -46 118 -46s19 16 21 26h10z" />
    <glyph glyph-name="D.sc" unicode="&#xe00b;" horiz-adv-x="519" 
d="M96 16v412h-72v16h226c227 -2 227 -205 227 -222c0 -90 -44 -222 -238 -222h-215v16h72zM180 428v-412c102 0 201 0 201 212c0 199 -119 200 -201 200z" />
    <glyph glyph-name="E.sc" unicode="&#xe00c;" horiz-adv-x="463" 
d="M96 16v412h-72v16h361l12 -113h-16c-5 71 -34 97 -106 97h-95v-193h37c65 0 72 12 74 78h16v-172h-16c-2 66 -9 78 -74 78h-37v-203h113c71 0 112 37 112 118h16v-134h-397v16h72z" />
    <glyph glyph-name="F.sc" unicode="&#xe012;" horiz-adv-x="426" 
d="M96 16v412h-72v16h362l16 -119h-16c-8 82 -41 103 -121 103h-85v-193h37c65 0 72 12 74 78h16v-172h-16c-2 66 -9 78 -74 78h-37v-203h84v-16h-240v16h72z" />
    <glyph glyph-name="G.sc" unicode="&#xe013;" horiz-adv-x="519" 
d="M287 156h222v-16h-66v-82c-24 -19 -86 -66 -178 -66c-132 0 -225 89 -225 220c0 177 123 240 217 240c82 0 112 -49 133 -49c15 0 20 22 20 41h16v-143h-16c-20 109 -109 127 -143 127c-123 0 -131 -134 -131 -218c0 -55 0 -202 128 -202c16 0 95 6 95 73v59h-72v16z" />
    <glyph glyph-name="H.sc" unicode="&#xe014;" horiz-adv-x="574" 
d="M96 16v412h-72v16h230v-16h-74v-193h214v193h-74v16h230v-16h-72v-412h72v-16h-230v16h74v203h-214v-203h74v-16h-230v16h72z" />
    <glyph glyph-name="I.sc" unicode="&#xe015;" 
d="M97 16v412h-73v16h230v-16h-73v-412h73v-16h-230v16h73z" />
    <glyph glyph-name="J.sc" unicode="&#xe01a;" horiz-adv-x="296" 
d="M204 428v-333c0 -65 -20 -148 -110 -148c-51 0 -78 27 -78 62c0 32 22 41 37 41c23 0 35 -12 35 -34c0 -16 -8 -23 -17 -27s-17 -7 -17 -16c0 -10 13 -16 35 -16c20 0 50 4 50 50c0 28 -19 49 -19 95v326h-79v16h239v-16h-76z" />
    <glyph glyph-name="K.sc" unicode="&#xe01b;" horiz-adv-x="519" 
d="M96 16v412h-72v16h230v-16h-74v-194l174 162c10 9 21 15 21 25c0 6 -6 7 -13 7h-58v16h174v-16h-51c-17 0 -22 -6 -33 -16l-143 -134l176 -246c6 -8 17 -16 40 -16h38v-16h-236v16h64l-147 204l-6 -5v-199h67v-16h-223v16h72z" />
    <glyph glyph-name="L.sc" unicode="&#xe01c;" horiz-adv-x="444" 
d="M96 16v412h-80v16h246v-16h-82v-412h97c99 0 129 37 129 133h16v-149h-406v16h80z" />
    <glyph glyph-name="M.sc" unicode="&#xe01e;" horiz-adv-x="630" 
d="M96 57v371h-72v16h157l134 -314l131 314h160v-16h-72v-412h72v-16h-230v16h74v389h-2l-166 -396h-8l-160 387h-2v-339c0 -23 6 -41 42 -41h30v-16h-160v16h30c36 0 42 18 42 41z" />
    <glyph glyph-name="N.sc" unicode="&#xe01f;" horiz-adv-x="519" 
d="M90 428h-74v16h172l223 -303h2v246c0 23 -6 41 -42 41h-30v16h162v-16h-32c-36 0 -42 -18 -42 -41v-387h-12l-309 409h-2v-352c0 -23 6 -41 42 -41h34v-16h-166v16h32c36 0 42 18 42 41v371z" />
    <glyph glyph-name="O.sc" unicode="&#xe021;" horiz-adv-x="519" 
d="M40 222c0 114 79 230 220 230c140 0 219 -116 219 -230c0 -122 -88 -230 -219 -230c-132 0 -220 108 -220 230zM260 436c-100 0 -124 -106 -124 -214s24 -214 124 -214c99 0 123 106 123 214s-24 214 -123 214z" />
    <glyph glyph-name="P.sc" unicode="&#xe029;" horiz-adv-x="444" 
d="M96 16v412h-80v16h211c112 0 185 -35 185 -126c0 -87 -87 -126 -163 -126c-26 0 -43 5 -69 14v-190h83v-16h-247v16h80zM180 428v-206c19 -7 37 -14 60 -14c63 0 82 54 82 110c0 64 -15 110 -101 110h-41z" />
    <glyph glyph-name="Q.sc" unicode="&#xe02a;" horiz-adv-x="519" 
d="M399 -114v-16h-67c-103 0 -112 34 -112 87v39c-110 20 -180 117 -180 226c0 114 79 230 220 230c140 0 219 -116 219 -230c0 -109 -71 -208 -181 -226v-45c0 -46 4 -65 55 -65h46zM260 436c-100 0 -124 -106 -124 -214s24 -214 124 -214c99 0 123 106 123 214
s-24 214 -123 214z" />
    <glyph glyph-name="R.sc" unicode="&#xe02b;" horiz-adv-x="481" 
d="M96 16v412h-72v16h203c84 0 172 -20 172 -106c0 -89 -106 -102 -141 -106v-2c120 -14 125 -63 132 -129c7 -65 9 -93 35 -93c13 0 26 2 42 11l5 -12c-17 -9 -44 -15 -67 -15c-91 0 -100 58 -105 114c-5 57 -5 113 -80 113h-40v-203h71v-16h-227v16h72zM180 428v-193h37
c20 0 98 3 98 98c0 66 -30 95 -94 95h-41z" />
    <glyph glyph-name="S.sc" unicode="&#xe02c;" horiz-adv-x="407" 
d="M56 0v163h16c8 -85 34 -155 136 -155c71 0 101 50 101 92c0 64 -38 71 -122 90c-62 14 -124 35 -124 135c0 57 32 127 123 127c63 0 95 -36 107 -36s11 17 11 28h16v-135h-16c-2 39 -11 127 -120 127c-51 0 -85 -31 -85 -83c0 -62 62 -68 125 -83
c64 -15 127 -39 127 -138c0 -80 -48 -140 -137 -140c-73 0 -112 33 -128 33c-6 0 -14 -3 -14 -13v-12h-16z" />
    <glyph glyph-name="T.sc" unicode="&#xe02e;" horiz-adv-x="464" 
d="M190 16v412h-50c-90 0 -102 -41 -102 -118h-16v134h420v-134h-16c0 77 -12 118 -102 118h-50v-412h84v-16h-252v16h84z" />
    <glyph glyph-name="U.sc" unicode="&#xe030;" horiz-adv-x="519" 
d="M9 428v16h243v-16h-80v-290c0 -92 44 -130 113 -130s128 34 128 118v261c0 23 -6 41 -42 41h-45v16h177v-16h-32c-36 0 -42 -18 -42 -41v-254c0 -119 -89 -141 -164 -141c-177 0 -177 86 -177 139v297h-79z" />
    <glyph glyph-name="V.sc" unicode="&#xe035;" horiz-adv-x="481" 
d="M0 428v16h216v-16h-63l121 -312l113 277c5 11 5 17 5 23s-7 12 -25 12h-30v16h144v-16h-31c-22 0 -34 -4 -47 -36l-164 -400h-6l-173 436h-60z" />
    <glyph glyph-name="W.sc" unicode="&#xe036;" horiz-adv-x="685" 
d="M145 428l134 -327l51 114l-88 213h-44v16h318v-16h-52c-20 0 -24 -8 -29 -19l-49 -109l82 -199l127 295c2 5 5 12 5 18c0 14 -14 14 -23 14h-31v16h144v-16h-35c-14 0 -30 -2 -44 -33l-176 -403h-8l-90 207l-92 -207h-8l-182 436h-60v16h186v-16h-36zM332 428l47 -111
l37 84c2 4 4 11 4 17c0 9 -10 10 -18 10h-70z" />
    <glyph glyph-name="X.sc" unicode="&#xe037;" horiz-adv-x="500" 
d="M98 59l118 157l-138 212h-54v16h210v-16h-48l90 -144l83 110c10 13 12 19 12 24c0 6 -5 10 -19 10h-33v16h139v-16h-34c-18 0 -27 -10 -38 -24l-102 -132l165 -256h52v-16h-210v16h53l-120 188l-112 -150c-6 -8 -14 -18 -14 -26c0 -10 17 -12 27 -12h24v-16h-150v16h28
c33 0 53 19 71 43z" />
    <glyph glyph-name="Y.sc" unicode="&#xe038;" horiz-adv-x="444" 
d="M184 16v161l-133 251h-56v16h210v-16h-52l111 -223l97 185c5 11 7 19 7 25c0 9 -4 13 -30 13h-15v16h126v-16h-28c-24 0 -33 -18 -45 -41l-108 -204v-167h83v-16h-250v16h83z" />
    <glyph glyph-name="Z.sc" unicode="&#xe03b;" horiz-adv-x="463" 
d="M66 444h341l-270 -428h75c184 0 184 49 184 115h10v-131h-381l272 428h-72c-142 0 -147 -32 -149 -111h-10v127z" />
    <glyph glyph-name="Lslash.sc" unicode="&#xe01d;" horiz-adv-x="444" 
d="M96 16v191l-77 -44v16l77 44v205h-80v16h246v-16h-82v-158l121 69v-16l-121 -69v-238h97c99 0 129 37 129 133h16v-149h-406v16h80z" />
    <glyph glyph-name="Scaron.sc" unicode="&#xe02d;" horiz-adv-x="407" 
d="M56 0v163h16c8 -85 34 -155 136 -155c71 0 101 50 101 92c0 64 -38 71 -122 90c-62 14 -124 35 -124 135c0 57 32 127 123 127c63 0 95 -36 107 -36s11 17 11 28h16v-135h-16c-2 39 -11 127 -120 127c-51 0 -85 -31 -85 -83c0 -62 62 -68 125 -83
c64 -15 127 -39 127 -138c0 -80 -48 -140 -137 -140c-73 0 -112 33 -128 33c-6 0 -14 -3 -14 -13v-12h-16zM354 655l-122 -169h-56l-122 169h33l117 -106l117 106h33z" />
    <glyph glyph-name="Zcaron.sc" unicode="&#xe03c;" horiz-adv-x="463" 
d="M66 444h341l-270 -428h75c184 0 184 49 184 115h10v-131h-381l272 428h-72c-142 0 -147 -32 -149 -111h-10v127zM372 655l-122 -169h-56l-122 169h33l117 -106l117 106h33z" />
    <glyph glyph-name="Agrave.sc" unicode="&#xe005;" horiz-adv-x="463" 
d="M235 452l171 -436h55v-16h-208v16h57l-50 129h-136l-37 -91c-3 -8 -6 -13 -6 -23c0 -13 14 -15 30 -15h28v-16h-137v16h22c24 0 38 15 50 45l156 391h5zM193 324l-64 -163h125zM276 486l-145 90c-26 17 -40 25 -40 45s18 34 32 34c18 0 29 -11 43 -25l145 -144h-35z" />
    <glyph glyph-name="Aacute.sc" unicode="&#xe002;" horiz-adv-x="463" 
d="M235 452l171 -436h55v-16h-208v16h57l-50 129h-136l-37 -91c-3 -8 -6 -13 -6 -23c0 -13 14 -15 30 -15h28v-16h-137v16h22c24 0 38 15 50 45l156 391h5zM193 324l-64 -163h125zM153 486l145 144c14 14 25 25 43 25c14 0 32 -14 32 -34s-14 -28 -40 -45l-145 -90h-35z" />
    <glyph glyph-name="Acircumflex.sc" unicode="&#xe003;" horiz-adv-x="463" 
d="M235 452l171 -436h55v-16h-208v16h57l-50 129h-136l-37 -91c-3 -8 -6 -13 -6 -23c0 -13 14 -15 30 -15h28v-16h-137v16h22c24 0 38 15 50 45l156 391h5zM193 324l-64 -163h125zM82 486l122 169h56l122 -169h-33l-117 106l-117 -106h-33z" />
    <glyph glyph-name="Atilde.sc" unicode="&#xe007;" horiz-adv-x="463" 
d="M235 452l171 -436h55v-16h-208v16h57l-50 129h-136l-37 -91c-3 -8 -6 -13 -6 -23c0 -13 14 -15 30 -15h28v-16h-137v16h22c24 0 38 15 50 45l156 391h5zM193 324l-64 -163h125zM369 612h26c-15 -52 -48 -102 -108 -102c-27 0 -51 11 -74 24c-18 10 -42 24 -63 24
c-28 0 -47 -22 -55 -48h-26c15 52 48 102 108 102c27 0 51 -11 74 -24c18 -10 42 -24 63 -24c28 0 47 22 55 48z" />
    <glyph glyph-name="Adieresis.sc" unicode="&#xe004;" horiz-adv-x="463" 
d="M235 452l171 -436h55v-16h-208v16h57l-50 129h-136l-37 -91c-3 -8 -6 -13 -6 -23c0 -13 14 -15 30 -15h28v-16h-137v16h22c24 0 38 15 50 45l156 391h5zM193 324l-64 -163h125zM326 596c24 0 45 -21 45 -45s-21 -45 -45 -45c-25 0 -45 21 -45 45s20 45 45 45zM138 596
c24 0 45 -21 45 -45s-21 -45 -45 -45c-25 0 -45 21 -45 45s20 45 45 45z" />
    <glyph glyph-name="Aring.sc" unicode="&#xe006;" horiz-adv-x="463" 
d="M235 452l171 -436h55v-16h-208v16h57l-50 129h-136l-37 -91c-3 -8 -6 -13 -6 -23c0 -13 14 -15 30 -15h28v-16h-137v16h22c24 0 38 15 50 45l156 391h5zM193 324l-64 -163h125zM232 655c50 0 90 -41 90 -90s-40 -90 -90 -90s-90 41 -90 90s40 90 90 90zM232 625
c-33 0 -60 -28 -60 -60s27 -60 60 -60s60 28 60 60s-27 60 -60 60z" />
    <glyph glyph-name="AE.sc" unicode="&#xe001;" horiz-adv-x="648" 
d="M281 175v245h-2l-142 -245h144zM53 65l216 363h-84v16h385l12 -113h-16c-5 71 -34 97 -106 97h-95v-193h37c65 0 72 12 74 78h16v-172h-16c-2 66 -9 78 -74 78h-37v-203h113c71 0 112 37 112 118h16v-134h-405v16h80v143h-154l-61 -105c-4 -8 -10 -17 -10 -26
c0 -12 18 -12 42 -12h22v-16h-162v16h15c51 0 63 21 80 49z" />
    <glyph glyph-name="Ccedilla.sc" unicode="&#xe00a;" horiz-adv-x="463" 
d="M409 432v-134h-9c-12 71 -56 141 -142 138c-98 0 -122 -106 -122 -214s24 -214 120 -214c84 0 137 69 143 156h10v-156h-10c-3 16 -5 32 -21 32c-15 0 -49 -46 -114 -48l-46 -76l2 -2c18 8 39 10 61 10c36 0 79 -23 79 -62c0 -60 -67 -78 -116 -78c-37 0 -71 10 -105 22
l8 13c20 -7 37 -11 69 -11c41 -2 66 15 66 52c0 20 -12 40 -38 40c-13 0 -27 -2 -41 -6l-17 7l54 91c-121 11 -200 114 -200 230c0 114 79 230 220 230c65 0 103 -46 118 -46s19 16 21 26h10z" />
    <glyph glyph-name="Egrave.sc" unicode="&#xe010;" horiz-adv-x="463" 
d="M96 16v412h-72v16h361l12 -113h-16c-5 71 -34 97 -106 97h-95v-193h37c65 0 72 12 74 78h16v-172h-16c-2 66 -9 78 -74 78h-37v-203h113c71 0 112 37 112 118h16v-134h-397v16h72zM276 486l-145 90c-26 17 -40 25 -40 45s18 34 32 34c18 0 29 -11 43 -25l145 -144h-35z
" />
    <glyph glyph-name="Eacute.sc" unicode="&#xe00d;" horiz-adv-x="463" 
d="M96 16v412h-72v16h361l12 -113h-16c-5 71 -34 97 -106 97h-95v-193h37c65 0 72 12 74 78h16v-172h-16c-2 66 -9 78 -74 78h-37v-203h113c71 0 112 37 112 118h16v-134h-397v16h72zM153 486l145 144c14 14 25 25 43 25c14 0 32 -14 32 -34s-14 -28 -40 -45l-145 -90h-35z
" />
    <glyph glyph-name="Ecircumflex.sc" unicode="&#xe00e;" horiz-adv-x="463" 
d="M96 16v412h-72v16h361l12 -113h-16c-5 71 -34 97 -106 97h-95v-193h37c65 0 72 12 74 78h16v-172h-16c-2 66 -9 78 -74 78h-37v-203h113c71 0 112 37 112 118h16v-134h-397v16h72zM82 486l122 169h56l122 -169h-33l-117 106l-117 -106h-33z" />
    <glyph glyph-name="Edieresis.sc" unicode="&#xe00f;" horiz-adv-x="463" 
d="M96 16v412h-72v16h361l12 -113h-16c-5 71 -34 97 -106 97h-95v-193h37c65 0 72 12 74 78h16v-172h-16c-2 66 -9 78 -74 78h-37v-203h113c71 0 112 37 112 118h16v-134h-397v16h72zM326 596c24 0 45 -21 45 -45s-21 -45 -45 -45c-25 0 -45 21 -45 45s20 45 45 45zM138 596
c24 0 45 -21 45 -45s-21 -45 -45 -45c-25 0 -45 21 -45 45s20 45 45 45z" />
    <glyph glyph-name="Igrave.sc" unicode="&#xe019;" 
d="M97 16v412h-73v16h230v-16h-73v-412h73v-16h-230v16h73zM183 486l-145 90c-26 17 -40 25 -40 45s18 34 32 34c18 0 29 -11 43 -25l145 -144h-35z" />
    <glyph glyph-name="Iacute.sc" unicode="&#xe016;" 
d="M97 16v412h-73v16h230v-16h-73v-412h73v-16h-230v16h73zM72 486l145 144c14 14 25 25 43 25c14 0 32 -14 32 -34s-14 -28 -40 -45l-145 -90h-35z" />
    <glyph glyph-name="Icircumflex.sc" unicode="&#xe017;" 
d="M97 16v412h-73v16h230v-16h-73v-412h73v-16h-230v16h73zM-11 486l122 169h56l122 -169h-33l-117 106l-117 -106h-33z" />
    <glyph glyph-name="Idieresis.sc" unicode="&#xe018;" 
d="M97 16v412h-73v16h230v-16h-73v-412h73v-16h-230v16h73zM233 596c24 0 45 -21 45 -45s-21 -45 -45 -45c-25 0 -45 21 -45 45s20 45 45 45zM45 596c24 0 45 -21 45 -45s-21 -45 -45 -45c-25 0 -45 21 -45 45s20 45 45 45z" />
    <glyph glyph-name="Eth.sc" unicode="&#xe011;" horiz-adv-x="519" 
d="M96 16v213h-62v16h62v183h-72v16h226c227 -2 227 -205 227 -222c0 -90 -44 -222 -238 -222h-215v16h72zM180 428v-183h97v-16h-97v-213c102 0 201 0 201 212c0 199 -119 200 -201 200z" />
    <glyph glyph-name="Ntilde.sc" unicode="&#xe020;" horiz-adv-x="519" 
d="M90 428h-74v16h172l223 -303h2v246c0 23 -6 41 -42 41h-30v16h162v-16h-32c-36 0 -42 -18 -42 -41v-387h-12l-309 409h-2v-352c0 -23 6 -41 42 -41h34v-16h-166v16h32c36 0 42 18 42 41v371zM397 612h26c-15 -52 -48 -102 -108 -102c-27 0 -51 11 -74 24
c-18 10 -42 24 -63 24c-28 0 -47 -22 -55 -48h-26c15 52 48 102 108 102c27 0 51 -11 74 -24c18 -10 42 -24 63 -24c28 0 47 22 55 48z" />
    <glyph glyph-name="Ograve.sc" unicode="&#xe026;" horiz-adv-x="519" 
d="M40 222c0 114 79 230 220 230c140 0 219 -116 219 -230c0 -122 -88 -230 -219 -230c-132 0 -220 108 -220 230zM260 436c-100 0 -124 -106 -124 -214s24 -214 124 -214c99 0 123 106 123 214s-24 214 -123 214zM304 486l-145 90c-26 17 -40 25 -40 45s18 34 32 34
c18 0 29 -11 43 -25l145 -144h-35z" />
    <glyph glyph-name="Oacute.sc" unicode="&#xe023;" horiz-adv-x="519" 
d="M40 222c0 114 79 230 220 230c140 0 219 -116 219 -230c0 -122 -88 -230 -219 -230c-132 0 -220 108 -220 230zM260 436c-100 0 -124 -106 -124 -214s24 -214 124 -214c99 0 123 106 123 214s-24 214 -123 214zM181 486l145 144c14 14 25 25 43 25c14 0 32 -14 32 -34
s-14 -28 -40 -45l-145 -90h-35z" />
    <glyph glyph-name="Ocircumflex.sc" unicode="&#xe024;" horiz-adv-x="519" 
d="M40 222c0 114 79 230 220 230c140 0 219 -116 219 -230c0 -122 -88 -230 -219 -230c-132 0 -220 108 -220 230zM260 436c-100 0 -124 -106 -124 -214s24 -214 124 -214c99 0 123 106 123 214s-24 214 -123 214zM110 486l122 169h56l122 -169h-33l-117 106l-117 -106h-33z
" />
    <glyph glyph-name="Otilde.sc" unicode="&#xe028;" horiz-adv-x="519" 
d="M40 222c0 114 79 230 220 230c140 0 219 -116 219 -230c0 -122 -88 -230 -219 -230c-132 0 -220 108 -220 230zM260 436c-100 0 -124 -106 -124 -214s24 -214 124 -214c99 0 123 106 123 214s-24 214 -123 214zM397 612h26c-15 -52 -48 -102 -108 -102
c-27 0 -51 11 -74 24c-18 10 -42 24 -63 24c-28 0 -47 -22 -55 -48h-26c15 52 48 102 108 102c27 0 51 -11 74 -24c18 -10 42 -24 63 -24c28 0 47 22 55 48z" />
    <glyph glyph-name="Odieresis.sc" unicode="&#xe025;" horiz-adv-x="519" 
d="M40 222c0 114 79 230 220 230c140 0 219 -116 219 -230c0 -122 -88 -230 -219 -230c-132 0 -220 108 -220 230zM260 436c-100 0 -124 -106 -124 -214s24 -214 124 -214c99 0 123 106 123 214s-24 214 -123 214zM354 596c24 0 45 -21 45 -45s-21 -45 -45 -45
c-25 0 -45 21 -45 45s20 45 45 45zM166 596c24 0 45 -21 45 -45s-21 -45 -45 -45c-25 0 -45 21 -45 45s20 45 45 45z" />
    <glyph glyph-name="OE.sc" unicode="&#xe022;" horiz-adv-x="704" 
d="M337 16v412c-18 3 -50 8 -77 8c-100 0 -124 -106 -124 -214s24 -214 124 -214c27 0 59 5 77 8zM421 428v-193h37c65 0 72 12 74 78h16v-172h-16c-2 66 -9 78 -74 78h-37v-203h113c71 0 112 37 112 118h16v-134h-299c-21 0 -37 -2 -53 -4s-32 -4 -50 -4
c-132 0 -220 108 -220 230c0 114 79 230 220 230c18 0 34 -2 50 -4s32 -4 53 -4h263l12 -113h-16c-5 71 -34 97 -106 97h-95z" />
    <glyph glyph-name="Oslash.sc" unicode="&#xe027;" horiz-adv-x="519" 
d="M150 104l214 250c-16 49 -49 82 -104 82c-100 0 -124 -106 -124 -214c0 -41 4 -82 14 -118zM369 340l-213 -250c16 -49 48 -82 104 -82c99 0 123 106 123 214c0 41 -4 82 -14 118zM61 0l47 55c-43 41 -68 102 -68 167c0 114 79 230 220 230c60 0 107 -21 142 -53l45 53
l11 -8l-46 -54c44 -45 67 -107 67 -168c0 -122 -88 -230 -219 -230c-57 0 -105 20 -142 54l-46 -54z" />
    <glyph glyph-name="Ugrave.sc" unicode="&#xe034;" horiz-adv-x="519" 
d="M9 428v16h243v-16h-80v-290c0 -92 44 -130 113 -130s128 34 128 118v261c0 23 -6 41 -42 41h-45v16h177v-16h-32c-36 0 -42 -18 -42 -41v-254c0 -119 -89 -141 -164 -141c-177 0 -177 86 -177 139v297h-79zM304 486l-145 90c-26 17 -40 25 -40 45s18 34 32 34
c18 0 29 -11 43 -25l145 -144h-35z" />
    <glyph glyph-name="Uacute.sc" unicode="&#xe031;" horiz-adv-x="519" 
d="M9 428v16h243v-16h-80v-290c0 -92 44 -130 113 -130s128 34 128 118v261c0 23 -6 41 -42 41h-45v16h177v-16h-32c-36 0 -42 -18 -42 -41v-254c0 -119 -89 -141 -164 -141c-177 0 -177 86 -177 139v297h-79zM206 486l145 144c14 14 25 25 43 25c14 0 32 -14 32 -34
s-14 -28 -40 -45l-145 -90h-35z" />
    <glyph glyph-name="Ucircumflex.sc" unicode="&#xe032;" horiz-adv-x="519" 
d="M9 428v16h243v-16h-80v-290c0 -92 44 -130 113 -130s128 34 128 118v261c0 23 -6 41 -42 41h-45v16h177v-16h-32c-36 0 -42 -18 -42 -41v-254c0 -119 -89 -141 -164 -141c-177 0 -177 86 -177 139v297h-79zM110 486l122 169h56l122 -169h-33l-117 106l-117 -106h-33z" />
    <glyph glyph-name="Udieresis.sc" unicode="&#xe033;" horiz-adv-x="519" 
d="M9 428v16h243v-16h-80v-290c0 -92 44 -130 113 -130s128 34 128 118v261c0 23 -6 41 -42 41h-45v16h177v-16h-32c-36 0 -42 -18 -42 -41v-254c0 -119 -89 -141 -164 -141c-177 0 -177 86 -177 139v297h-79zM360 596c24 0 45 -21 45 -45s-21 -45 -45 -45
c-25 0 -45 21 -45 45s20 45 45 45zM172 596c24 0 45 -21 45 -45s-21 -45 -45 -45c-25 0 -45 21 -45 45s20 45 45 45z" />
    <glyph glyph-name="Yacute.sc" unicode="&#xe039;" horiz-adv-x="444" 
d="M184 16v161l-133 251h-56v16h210v-16h-52l111 -223l97 185c5 11 7 19 7 25c0 9 -4 13 -30 13h-15v16h126v-16h-28c-24 0 -33 -18 -45 -41l-108 -204v-167h83v-16h-250v16h83zM168 486l145 144c14 14 25 25 43 25c14 0 32 -14 32 -34s-14 -28 -40 -45l-145 -90h-35z" />
    <glyph glyph-name="Thorn.sc" unicode="&#xe02f;" horiz-adv-x="444" 
d="M96 16v412h-80v16h247v-16h-83v-64h78c81 0 154 -35 154 -126c0 -87 -87 -126 -163 -126c-26 0 -43 5 -69 14v-110h83v-16h-247v16h80zM180 348v-206c19 -7 37 -14 60 -14c63 0 82 54 82 110c0 64 -15 110 -88 110h-54z" />
    <glyph glyph-name="Ydieresis.sc" unicode="&#xe03a;" horiz-adv-x="444" 
d="M184 16v161l-133 251h-56v16h210v-16h-52l111 -223l97 185c5 11 7 19 7 25c0 9 -4 13 -30 13h-15v16h126v-16h-28c-24 0 -33 -18 -45 -41l-108 -204v-167h83v-16h-250v16h83zM326 596c24 0 45 -21 45 -45s-21 -45 -45 -45c-25 0 -45 21 -45 45s20 45 45 45zM138 596
c24 0 45 -21 45 -45s-21 -45 -45 -45c-25 0 -45 21 -45 45s20 45 45 45z" />
    <glyph glyph-name="uni03A9" unicode="&#x3a9;" horiz-adv-x="727" 
d="M693 142l-25 -142h-235l-6 19c43 84 131 217 130 364c-1 216 -97 293 -195 293c-106 0 -192 -79 -192 -298c0 -142 74 -264 128 -359l-8 -19h-233l-23 142l24 2c21 -66 37 -77 77 -77h105c-63 56 -168 156 -168 318c0 197 129 321 293 321c167 0 289 -117 289 -312
c0 -146 -98 -253 -172 -327h110c42 0 53 8 75 77z" />
    </font>
</defs>
</svg>
